蓝色星球2 Blue.Planet.II.2017.S01.2160p.BluRay.REMUX.HEVC.DTS-HD.MA.5.1-FGT

2018-01-20 23:04 0 2982 219
【中文片名】: 蓝色星球2
【片名】: Blue.Planet.II.2017.S01.2160p.BluRay.REMUX.HEVC.DTS-HD.MA.5.1-FGT
【又名】: 蓝色星球 第二季
【格式】: REMUX
【文件大小】: 142.96 GB
【时长】: 60分钟
【地区】: 英国
【影片类型】: 纪录
【主演】: 戴维·阿滕伯勒
【上映时间】: 2017-10-29(英国),2017-10-30(中国大陆)
【评分】: 9.7 9.9
【剧情介绍】: 点击查看

该内容尚未提供权利证明,无法提供下载。。。

内容简介




点击查看文件测试信息 [+]
MediaInfo
Video
ID                                       : 1
Format                                   : HEVC
Format/Info                              : High Efficiency Video Coding
Format profile                           : Main 10@L5.1@High
Codec ID                                 : V_MPEGH/ISO/HEVC
Duration                                 : 53 min 12 s
Bit rate                                 : 66.0 Mb/s
Width                                    : 3 840 pixels
Height                                   : 2 160 pixels
Display aspect ratio                     : 16:9
Frame rate mode                          : Constant
Frame rate                               : 23.976 (24000/1001) FPS
Color space                              : YUV
Chroma subsampling                       : 4:2:0 (Type 2)
Bit depth                                : 10 bits
Bits/(Pixel*Frame)                       : 0.332
Stream size                              : 24.5 GiB (97%)
Title                                    : Blue.Planet.II.S01E05.Green.Seas.2160p.BluRay.REMUX.HEVC.DTS-HD.MA.5.1-FGT
Default                                  : Yes
Forced                                   : No
Color range                              : Limited
Color primaries                          : BT.2020
Transfer characteristics                 : PQ
Matrix coefficients                      : BT.2020 non-constant
Mastering display color primaries        : Display P3
Mastering display luminance              : min: 0.0050 cd/m2, max: 1000 cd/m2
Maximum Content Light Level              : 1000 cd/m2
Maximum Frame-Average Light Level        : 120 cd/m2

Audio
ID                                       : 2
Format                                   : DTS
Format/Info                              : Digital Theater Systems
Format profile                           : MA / Core
Codec ID                                 : A_DTS
Duration                                 : 53 min 12 s
Bit rate mode                            : Variable / Constant
Bit rate                                 : 2 279 kb/s / 1 509 kb/s
Channel(s)                               : 6 channels
Channel positions                        : Front: L C R, Side: L R, LFE
Sampling rate                            : 48.0 kHz
Frame rate                               : 93.750 FPS (512 SPF)
Bit depth                                : 16 bits
Compression mode                         : Lossless / Lossy
Stream size                              : 868 MiB (3%)
Title                                    : Blue.Planet.II.S01E05.Green.Seas.2160p.BluRay.REMUX.HEVC.DTS-HD.MA.5.1-FGT
Language                                 : English
Default                                  : Yes
Forced                                   : No

Text
ID                                       : 3
Format                                   : PGS
Muxing mode                              : zlib
Codec ID                                 : S_HDMV/PGS
Codec ID/Info                            : Picture based subtitle format used on BDs/HD-DVDs
Duration                                 : 52 min 38 s
Bit rate                                 : 21.7 kb/s
Count of elements                        : 758
Stream size                              : 8.17 MiB (0%)
Title                                    : English-PGS
Language                                 : English
Default                                  : Yes
Forced                                   : No

Menu
00:00:00.000                             : en:Chapter 1
00:10:17.408                             : en:Chapter 2
00:20:49.540                             : en:Chapter 3
00:30:38.336                             : en:Chapter 4
00:41:58.057                             : en:Chapter 5




评论