囚犯Convict.2014.720p.BluRay.x264-PHOBOS

2015-02-08 09:11 0 39313 364
【中文片名】: 囚犯
【片名】: Convict.2014.720p.BluRay.x264-PHOBOS
【又名】:
【格式】: 720P
【文件大小】: 4.36 GB
【时长】:
【地区】: 澳大利亚
【影片类型】: 剧情 / 动作 / 犯罪
【主演】:
【上映时间】:
【评分】: 5.8 5.8
【剧情介绍】: 点击查看

该内容尚未提供权利证明,无法提供下载。。。

内容简介

Screenshots:
______  _   _  _____ ______  _____  _____
___      _   ___   _  /  ___
_/ / _     _/ /    --.
__/   _      ___     --.
_/ / _/ / _/ //__/ /
_    _ _/ ___/ ____/  ___/ ____/
Proudly Presents

Release Name .....: Convict.2014.720p.BluRay.x264-PHOBOS

Title ............: Convict
URL ..............: http://www.imdb.com/title/tt2893780
Runtime ..........: 1h 42mn
Language .........: English 6ch DTS @ 1509 Kbps
Subtitles ........: None
File Size ........: 4.36 GiB
Video ............: 24 fps x264 1280x720 @ 4574 Kbps

Summary

Sent to prison because of manslaughter, Ray is challenged both physically and
mentally by a sadistic prison boss.

Group Info

Our mission is to provide the scene with decent quality rips of old movie classics.

Greets fly out to ARCHiViST, GERUDO, INQUISITION, RedBlade, REWARD, and everyone
that helped us; you know who you guys are!

Looking for decent affil sites (no rented/colo) and rippers/cappers.

Ask around for us.

点击查看文件测试信息 [+]
MediaInfo
Video
ID                                       : 1
Format                                   : AVC
Format/Info                              : Advanced Video Codec
Format profile                           : High@L4.1
Format settings, CABAC                   : Yes
Format settings, ReFrames                : 5 frames
Codec ID                                 : V_MPEG4/ISO/AVC
Duration                                 : 1h 42mn
Bit rate                                 : 4 574 Kbps
Width                                    : 1 280 pixels
Height                                   : 720 pixels
Display aspect ratio                     : 16:9
Frame rate mode                          : Constant
Frame rate                               : 24.000 fps
Color space                              : YUV
Chroma subsampling                       : 4:2:0
Bit depth                                : 8 bits
Scan type                                : Progressive
Bits/(Pixel*Frame)                       : 0.207
Stream size                              : 3.19 GiB (73%)
Writing library                          : x264 core 144 r2525 40bb568
Encoding settings                        : cabac=1 / ref=5 / deblock=1:0:0 / analyse=0x3:0x113 / me=umh / subme=8 / psy=1 / psy_rd=1.00:0.00 / mixed_ref=1 / me_range=16 / chroma_me=1 / trellis=1 / 8x8dct=1 / cqm=0 / deadzone=21,11 / fast_pskip=1 / chroma_qp_offset=-2 / threads=12 / lookahead_threads=2 / sliced_threads=0 / nr=0 / decimate=1 / interlaced=0 / bluray_compat=0 / constrained_intra=0 / bframes=3 / b_pyramid=2 / b_adapt=2 / b_bias=0 / direct=3 / weightb=1 / open_gop=0 / weightp=2 / keyint=240 / keyint_min=24 / scenecut=40 / intra_refresh=0 / rc_lookahead=50 / rc=2pass / mbtree=1 / bitrate=4574 / ratetol=1.0 / qcomp=0.60 / qpmin=0 / qpmax=69 / qpstep=4 / cplxblur=20.0 / qblur=0.5 / vbv_maxrate=62500 / vbv_bufsize=78125 / nal_hrd=none / filler=0 / ip_ratio=1.40 / aq=1:1.00
Language                                 : English
Default                                  : Yes
Forced                                   : No
DURATION                                 : 01:42:43.000000000
NUMBER_OF_FRAMES                         : 147912
NUMBER_OF_BYTES                          : 3519215188
_STATISTICS_WRITING_APP                  : mkvmerge v7.4.0 ('Circles') 32bit built on Dec 12 2014 12:10:09
_STATISTICS_WRITING_DATE_UTC             : 2015-02-07 17:14:52
_STATISTICS_TAGS                         : BPS DURATION NUMBER_OF_FRAMES NUMBER_OF_BYTES

Audio
ID                                       : 2
Format                                   : DTS
Format/Info                              : Digital Theater Systems
Mode                                     : 16
Format settings, Endianness              : Big
Codec ID                                 : A_DTS
Duration                                 : 1h 42mn
Bit rate mode                            : Constant
Bit rate                                 : 1 509 Kbps
Channel(s)                               : 6 channels
Channel positions                        : Front: L C R, Side: L R, LFE
Sampling rate                            : 48.0 KHz
Bit depth                                : 24 bits
Compression mode                         : Lossy
Stream size                              : 1.08 GiB (25%)
Language                                 : English
Default                                  : Yes
Forced                                   : No

Menu
00:00:00.000                             : en:00:00:00.000
00:07:23.500                             : en:00:07:23.500
00:14:29.250                             : en:00:14:29.250
00:19:55.250                             : en:00:19:55.250
00:27:02.708                             : en:00:27:02.708
00:33:08.708                             : en:00:33:08.708
00:39:32.708                             : en:00:39:32.708
00:45:37.417                             : en:00:45:37.417
00:54:41.625                             : en:00:54:41.625
00:59:54.583                             : en:00:59:54.583
01:05:03.958                             : en:01:05:03.958
01:12:28.167                             : en:01:12:28.167
01:19:09.292                             : en:01:19:09.292
01:24:01.542                             : en:01:24:01.542
01:29:46.417                             : en:01:29:46.417
01:38:41.208                             : en:01:38:41.208


评论