集中营狩猎Turkey.Shoot.1982.720p.BluRay.x264-PFa

2015-06-23 21:35 0 86569 192
【中文片名】: 集中营狩猎
【片名】: Turkey.Shoot.1982.720p.BluRay.x264-PFa
【又名】:
【格式】: 720P
【文件大小】: 3.26 GB
【时长】: 93 分钟,USA: 80 分钟
【地区】: 澳大利亚
【影片类型】: 剧情 / 惊悚 / 科幻
【主演】: Michael Craig / 奥丽维娅·赫西 / Steve Railsback
【上映时间】: 1982-09-23
【评分】: 5.2 5.2
【剧情介绍】: 点击查看

该内容尚未提供权利证明,无法提供下载。。。

内容简介

Screenshots:
GOOD MOVIES KEEPS ROLLING

Predator Fucked Alien
...... proudly presents.......

-=   Turkey.Shoot.1982.720p.BluRay.x264-PFa   =-

RELEASE INFO

original name........: Escape 2000 (1982)

ripper...............: Team PFa

DVD release..........: 20/05/15

genre................: Action

size.................: 69 x 50mb

video format.........: x264

video bitrate........: 4 774 Kbps

video resolution.....: 1 280  x 544

video aspect.........: 2.35:1

video fps............: 24.000 fps

video length.........: 1h 33mn

audio format.........: AC3

audio bitrate........: 224 Kbps

language.............: English

subs.................: None

notes................: Enjoy!
iMDB

iMDB rating.: 5.9
iMDB link...: http://www.imdb.com/title/tt0082338

PLOT SUMMARY

In the near future, after an unspecified holocaust, survivors are
herded into prison camps. There, they are hunted for sport by the
leaders of the camp. Paul, one of the newest prisoners, is determined
not to go down as quietly as the others.

CAST

NOTES

224 Kbps was all that was on disc

LOOKING FOR

- .pl ,.ro ,.hu ,.no ,.cz sites, ask around if you cant find us - 10mbit + dump for private usage
- TV-DVD / DVDR / x264 suplliers
- Experienced xvid / bluray rippers / encoders

GREETZ

731 , CHRONO, SYS, AVCHD, AVCDVD , UNTOUCHABLES, Ltu, WaLMaRT

点击查看文件测试信息 [+]
MediaInfo
Video
ID                                       : 1
Format                                   : AVC
Format/Info                              : Advanced Video Codec
Format profile                           : High@L4.1
Format settings, CABAC                   : Yes
Format settings, ReFrames                : 5 frames
Codec ID                                 : V_MPEG4/ISO/AVC
Duration                                 : 1h 33mn
Bit rate                                 : 4 774 Kbps
Width                                    : 1 280 pixels
Height                                   : 544 pixels
Display aspect ratio                     : 2.35:1
Frame rate mode                          : Constant
Frame rate                               : 24.000 fps
Color space                              : YUV
Chroma subsampling                       : 4:2:0
Bit depth                                : 8 bits
Scan type                                : Progressive
Bits/(Pixel*Frame)                       : 0.286
Stream size                              : 3.05 GiB (94%)
Writing library                          : x264 core 146 r2538 121396c
Encoding settings                        : cabac=1 / ref=5 / deblock=1:0:0 / analyse=0x3:0x133 / me=umh / subme=8 / psy=1 / psy_rd=1.00:0.00 / mixed_ref=1 / me_range=16 / chroma_me=1 / trellis=1 / 8x8dct=1 / cqm=0 / deadzone=21,11 / fast_pskip=0 / chroma_qp_offset=-2 / threads=12 / lookahead_threads=2 / sliced_threads=0 / nr=0 / decimate=1 / interlaced=0 / bluray_compat=0 / constrained_intra=0 / bframes=3 / b_pyramid=2 / b_adapt=1 / b_bias=0 / direct=1 / weightb=1 / open_gop=0 / weightp=2 / keyint=250 / keyint_min=23 / scenecut=40 / intra_refresh=0 / rc_lookahead=40 / rc=2pass / mbtree=1 / bitrate=4774 / ratetol=1.0 / qcomp=0.60 / qpmin=0 / qpmax=69 / qpstep=4 / cplxblur=20.0 / qblur=0.5 / ip_ratio=1.40 / aq=1:1.00
Language                                 : English
Default                                  : Yes
Forced                                   : No
DURATION                                 : 01:33:21.213000000
NUMBER_OF_FRAMES                         : 134429
NUMBER_OF_BYTES                          : 3341752802
_STATISTICS_WRITING_APP                  : mkvmerge v7.8.0 ('River Man') 64bit built on Mar 27 2015 16:31:37
_STATISTICS_WRITING_DATE_UTC             : 2015-06-15 13:10:39
_STATISTICS_TAGS                         : BPS DURATION NUMBER_OF_FRAMES NUMBER_OF_BYTES

Audio
ID                                       : 2
Format                                   : AC-3
Format/Info                              : Audio Coding 3
Mode extension                           : CM (complete main)
Format settings, Endianness              : Big
Codec ID                                 : A_AC3
Duration                                 : 1h 33mn
Bit rate mode                            : Constant
Bit rate                                 : 224 Kbps
Channel(s)                               : 2 channels
Channel positions                        : Front: L R
Sampling rate                            : 48.0 KHz
Compression mode                         : Lossy
Stream size                              : 150 MiB (4%)
Default                                  : Yes
Forced                                   : No

评论