拳霸3Ong-Bak.3.2010.THAI.1080p.BluRay.x264.DTS-FGT

2016-03-28 01:32 0 1236 153
【中文片名】: 拳霸3
【片名】: Ong-Bak.3.2010.THAI.1080p.BluRay.x264.DTS-FGT
【又名】: 盗佛线3,องค์บาก 3
【格式】: 1080P
【文件大小】: 7.93 GB
【时长】: 99分钟
【地区】: 泰国
【影片类型】: 动作
【主演】: Tony Jaa / 丹楚朋
【上映时间】: 2010-05-05
【评分】: 5.0 4.9
【剧情介绍】: 点击查看

该内容尚未提供权利证明,无法提供下载。。。

内容简介




点击查看文件测试信息 [+]
MediaInfo
Video
ID                                       : 1
Format                                   : AVC
Format/Info                              : Advanced Video Codec
Format profile                           : High@L4.1
Format settings, CABAC                   : Yes
Format settings, ReFrames                : 5 frames
Codec ID                                 : V_MPEG4/ISO/AVC
Duration                                 : 1h 38mn
Bit rate                                 : 10.0 Mbps
Width                                    : 1 920 pixels
Height                                   : 816 pixels
Display aspect ratio                     : 2.35:1
Frame rate mode                          : Constant
Frame rate                               : 24.000 fps
Color space                              : YUV
Chroma subsampling                       : 4:2:0
Bit depth                                : 8 bits
Scan type                                : Progressive
Bits/(Pixel*Frame)                       : 0.267
Stream size                              : 6.73 GiB (85%)
Writing library                          : x264 core 107 r1745 4785e8e
Encoding settings                        : cabac=1 / ref=5 / deblock=1:0:0 / analyse=0x3:0x133 / me=umh / subme=8 / psy=1 / psy_rd=1.00:0.00 / mixed_ref=1 / me_range=16 / chroma_me=1 / trellis=1 / 8x8dct=1 / cqm=0 / deadzone=21,11 / fast_pskip=0 / chroma_qp_offset=-2 / threads=3 / sliced_threads=0 / nr=0 / decimate=1 / interlaced=0 / constrained_intra=0 / bframes=3 / b_pyramid=2 / b_adapt=1 / b_bias=0 / direct=1 / weightb=1 / open_gop=0 / weightp=2 / keyint=300 / keyint_min=30 / scenecut=40 / intra_refresh=0 / rc_lookahead=40 / rc=2pass / mbtree=1 / bitrate=10022 / ratetol=1.0 / qcomp=0.60 / qpmin=10 / qpmax=51 / qpstep=4 / cplxblur=20.0 / qblur=0.5 / ip_ratio=1.40 / aq=1:1.00
Language                                 : Thai
Default                                  : Yes
Forced                                   : No

Audio
ID                                       : 2
Format                                   : DTS
Format/Info                              : Digital Theater Systems
Mode                                     : 16
Format settings, Endianness              : Big
Codec ID                                 : A_DTS
Duration                                 : 1h 38mn
Bit rate mode                            : Constant
Bit rate                                 : 1 509 Kbps
Channel(s)                               : 6 channels
Channel positions                        : Front: L C R, Side: L R, LFE
Sampling rate                            : 48.0 KHz
Frame rate                               : 93.750 fps (512 spf)
Bit depth                                : 24 bits
Compression mode                         : Lossy
Stream size                              : 1.04 GiB (13%)
Language                                 : Thai
Default                                  : Yes
Forced                                   : No

Text
ID                                       : 3
Format                                   : UTF-8
Codec ID                                 : S_TEXT/UTF8
Codec ID/Info                            : UTF-8 Plain Text
Language                                 : English
Default                                  : Yes
Forced                                   : Yes

Menu
00:00:00.000                             : en:00:00:00.000
00:08:21.667                             : en:00:08:21.667
00:14:04.208                             : en:00:14:04.208
00:21:11.167                             : en:00:21:11.167
00:29:10.917                             : en:00:29:10.917
00:38:38.458                             : en:00:38:38.458
00:48:23.042                             : en:00:48:23.042
00:57:31.583                             : en:00:57:31.583
01:08:40.000                             : en:01:08:40.000
01:15:19.500                             : en:01:15:19.500
01:23:34.417                             : en:01:23:34.417
01:32:23.250                             : en:01:32:23.250




评论