冈希尔路Gun.Hill.Road.2011.1080p.WEB-DL.DD5.1.H264-FGT

2018-03-13 19:14 0 43 2
【中文片名】: 冈希尔路
【片名】: Gun.Hill.Road.2011.1080p.WEB-DL.DD5.1.H264-FGT
【又名】:
【格式】: 1080P
【文件大小】: 3.41 GB
【时长】:
【国家】: 美国
【影片类型】: 剧情
【主演】: 埃塞·莫拉雷斯 / Isiah Whitlock Jr. / Judy Reyes / Harmony Santana
【上映时间】:
【评分】: 6.6 6.7
【剧情介绍】: 点击查看

内容简介




点击查看文件测试信息 [+]
MediaInfo
Video
ID                                       : 1
Format                                   : AVC
Format/Info                              : Advanced Video Codec
Format profile                           : High@L4
Format settings                          : CABAC / 4 Ref Frames
Format settings, CABAC                   : Yes
Format settings, ReFrames                : 4 frames
Codec ID                                 : V_MPEG4/ISO/AVC
Duration                                 : 1 h 26 min
Bit rate                                 : 5 258 kb/s
Width                                    : 1 912 pixels
Height                                   : 1 072 pixels
Display aspect ratio                     : 16:9
Frame rate mode                          : Constant
Frame rate                               : 23.976 (23976/1000) FPS
Color space                              : YUV
Chroma subsampling                       : 4:2:0
Bit depth                                : 8 bits
Scan type                                : Progressive
Bits/(Pixel*Frame)                       : 0.107
Stream size                              : 3.18 GiB (93%)
Title                                    : Gun.Hill.Road.2011.1080p.WEB-DL.DD5.1.H.264-FGT
Language                                 : English
Default                                  : Yes
Forced                                   : No
Color range                              : Limited
Color primaries                          : BT.709
Transfer characteristics                 : BT.709
Matrix coefficients                      : BT.709

Audio
ID                                       : 2
Format                                   : AC-3
Format/Info                              : Audio Coding 3
Codec ID                                 : A_AC3
Duration                                 : 1 h 26 min
Bit rate mode                            : Constant
Bit rate                                 : 384 kb/s
Channel(s)                               : 6 channels
Channel positions                        : Front: L C R, Side: L R, LFE
Sampling rate                            : 48.0 kHz
Frame rate                               : 31.250 FPS (1536 SPF)
Bit depth                                : 16 bits
Compression mode                         : Lossy
Stream size                              : 238 MiB (7%)
Title                                    : Gun.Hill.Road.2011.1080p.WEB-DL.DD5.1.H.264-FGT
Language                                 : English
Service kind                             : Complete Main
Default                                  : Yes
Forced                                   : No

Text
ID                                       : 3
Format                                   : UTF-8
Codec ID                                 : S_TEXT/UTF8
Codec ID/Info                            : UTF-8 Plain Text
Duration                                 : 1 h 20 min
Bit rate                                 : 40 b/s
Count of elements                        : 967
Stream size                              : 23.8 KiB (0%)
Language                                 : English
Default                                  : No
Forced                                   : No

Menu
00:00:00.000                             : en:Chapter 1
00:09:42.000                             : en:Chapter 2
00:19:24.000                             : en:Chapter 3
00:28:18.000                             : en:Chapter 4
00:37:52.000                             : en:Chapter 5
00:42:18.000                             : en:Chapter 6
00:51:36.000                             : en:Chapter 7
01:00:28.000                             : en:Chapter 8
01:09:09.000                             : en:Chapter 9
01:18:22.000                             : en:Chapter 10
01:21:59.000                             : en:Chapter 11




评论