Future.Weather.2012.1080p.WEB-DL.DD5.1.H264-FGT

2018-03-13 19:15 0 52 6
【中文片名】:
【片名】: Future.Weather.2012.1080p.WEB-DL.DD5.1.H264-FGT
【又名】:
【格式】: 1080P
【文件大小】: 3.15 GB
【时长】:
【国家】: 美国
【影片类型】: 剧情
【主演】: Moriah Cebollero / Perla Haney-Jardine / Jessica Hoffman
【上映时间】:
【评分】: 6.2 0.0
【剧情介绍】: 点击查看

内容简介




点击查看文件测试信息 [+]
MediaInfo
Video
ID                                       : 1
Format                                   : AVC
Format/Info                              : Advanced Video Codec
Format profile                           : High@L4
Format settings                          : CABAC / 5 Ref Frames
Format settings, CABAC                   : Yes
Format settings, ReFrames                : 5 frames
Codec ID                                 : V_MPEG4/ISO/AVC
Duration                                 : 1 h 39 min
Bit rate                                 : 4 127 kb/s
Width                                    : 1 902 pixels
Height                                   : 808 pixels
Display aspect ratio                     : 2.35:1
Frame rate mode                          : Constant
Frame rate                               : 23.976 (23976/1000) FPS
Color space                              : YUV
Chroma subsampling                       : 4:2:0
Bit depth                                : 8 bits
Scan type                                : Progressive
Bits/(Pixel*Frame)                       : 0.112
Stream size                              : 2.88 GiB (91%)
Title                                    : Future.Weather.2012.1080p.WEB-DL.DD5.1.H.264-FGT
Language                                 : English
Default                                  : Yes
Forced                                   : No
Color range                              : Limited
Color primaries                          : BT.709
Transfer characteristics                 : BT.709
Matrix coefficients                      : BT.709

Audio
ID                                       : 2
Format                                   : AC-3
Format/Info                              : Audio Coding 3
Codec ID                                 : A_AC3
Duration                                 : 1 h 39 min
Bit rate mode                            : Constant
Bit rate                                 : 384 kb/s
Channel(s)                               : 6 channels
Channel positions                        : Front: L C R, Side: L R, LFE
Sampling rate                            : 48.0 kHz
Frame rate                               : 31.250 FPS (1536 SPF)
Bit depth                                : 16 bits
Compression mode                         : Lossy
Stream size                              : 274 MiB (9%)
Title                                    : Future.Weather.2012.1080p.WEB-DL.DD5.1.H.264-FGT
Language                                 : English
Service kind                             : Complete Main
Default                                  : Yes
Forced                                   : No

Text
ID                                       : 3
Format                                   : UTF-8
Codec ID                                 : S_TEXT/UTF8
Codec ID/Info                            : UTF-8 Plain Text
Duration                                 : 1 h 38 min
Bit rate                                 : 56 b/s
Count of elements                        : 1350
Stream size                              : 40.7 KiB (0%)
Language                                 : English
Default                                  : No
Forced                                   : No

Menu
00:00:00.000                             : en:Chapter 1
00:09:57.000                             : en:Chapter 2
00:19:14.000                             : en:Chapter 3
00:28:07.000                             : en:Chapter 4
00:36:34.000                             : en:Chapter 5
00:45:00.000                             : en:Chapter 6
00:53:38.000                             : en:Chapter 7
01:04:10.000                             : en:Chapter 8
01:13:55.000                             : en:Chapter 9
01:22:58.000                             : en:Chapter 10
01:29:47.000                             : en:Chapter 11
01:32:50.000                             : en:Chapter 12




评论