凸槌保险员Frank.McKlusky.C.I.2002.1080p.WEB-DL.DD5.1.H264-FGT

2018-03-13 19:16 0 71 2
【中文片名】: 凸槌保险员
【片名】: Frank.McKlusky.C.I.2002.1080p.WEB-DL.DD5.1.H264-FGT
【又名】:
【格式】: 1080P
【文件大小】: 3.25 GB
【时长】: 83 分钟
【国家】: 美国
【影片类型】: 喜剧
【主演】: 崔西·摩根 / 兰迪·奎德 / 凯文·波拉克 / 恩里克·克兰东尼 / 安迪·里查克 / 奥森·比恩 / 戴夫·谢里登 / 卡梅隆·理查德森 / 多莉·帕顿 / Iva Hasperger / 凯文·P·法利 / Chyna / Josh Jacobson / Valarie Ianniello / Ramona Oprea
【上映时间】: 2002-04-26
【评分】: 4.1 6.0
【剧情介绍】: 点击查看

内容简介




点击查看文件测试信息 [+]
MediaInfo
Video
ID                                       : 1
Format                                   : AVC
Format/Info                              : Advanced Video Codec
Format profile                           : High@L4
Format settings                          : CABAC / 4 Ref Frames
Format settings, CABAC                   : Yes
Format settings, ReFrames                : 4 frames
Codec ID                                 : V_MPEG4/ISO/AVC
Duration                                 : 1 h 23 min
Bit rate                                 : 5 210 kb/s
Width                                    : 1 916 pixels
Height                                   : 1 032 pixels
Display aspect ratio                     : 1.85:1
Frame rate mode                          : Constant
Frame rate                               : 23.976 (23976/1000) FPS
Original frame rate                      : 23.976 (24000/1001) FPS
Color space                              : YUV
Chroma subsampling                       : 4:2:0
Bit depth                                : 8 bits
Scan type                                : Progressive
Bits/(Pixel*Frame)                       : 0.110
Stream size                              : 3.02 GiB (93%)
Title                                    : Frank.McKlusky.C.I.2002.1080p.WEB-DL.DD5.1.H.264-FGT
Language                                 : English
Default                                  : Yes
Forced                                   : No
Color range                              : Limited
Color primaries                          : BT.709
Transfer characteristics                 : BT.709
Matrix coefficients                      : BT.709

Audio
ID                                       : 2
Format                                   : AC-3
Format/Info                              : Audio Coding 3
Codec ID                                 : A_AC3
Duration                                 : 1 h 22 min
Bit rate mode                            : Constant
Bit rate                                 : 384 kb/s
Channel(s)                               : 6 channels
Channel positions                        : Front: L C R, Side: L R, LFE
Sampling rate                            : 48.0 kHz
Frame rate                               : 31.250 FPS (1536 SPF)
Bit depth                                : 16 bits
Compression mode                         : Lossy
Stream size                              : 228 MiB (7%)
Title                                    : Frank.McKlusky.C.I.2002.1080p.WEB-DL.DD5.1.H.264-FGT
Language                                 : English
Service kind                             : Complete Main
Default                                  : Yes
Forced                                   : No

Text
ID                                       : 3
Format                                   : UTF-8
Codec ID                                 : S_TEXT/UTF8
Codec ID/Info                            : UTF-8 Plain Text
Duration                                 : 1 h 22 min
Bit rate                                 : 81 b/s
Count of elements                        : 1787
Stream size                              : 49.5 KiB (0%)
Language                                 : English
Default                                  : No
Forced                                   : No

Menu
00:00:00.000                             : en:Opening Credits/Safety First
00:10:09.000                             : en:The Hanson Concert
00:16:31.000                             : en:Jimmy's Demise
00:21:14.000                             : en:Out of Toilet Paper
00:22:29.000                             : en:The Clue
00:27:49.000                             : en:A New Partner
00:29:55.000                             : en:Adventures in Rehab
00:32:37.000                             : en:The Requisition Form
00:34:49.000                             : en:The Gymnast and the Janitor
00:42:13.000                             : en:Guess Who's Gay?
00:47:15.000                             : en:Berkshire Downs
00:50:59.000                             : en:Bringing Home Sharon
00:54:22.000                             : en:The Lecture
00:58:48.000                             : en:Fired
01:06:03.000                             : en 01:08:14.000                             : en:Watch Out for the Clown/End Credits




评论