查尔斯·斯旺三世心灵一瞥A.Glimpse.Inside.the.Mind.of.Charles.Swan.III.2012.1080p.WEB-DL.AAC2.0.H264-FGT

2018-03-13 19:18 0 65 1
【中文片名】: 查尔斯·斯旺三世心灵一瞥
【片名】: A.Glimpse.Inside.the.Mind.of.Charles.Swan.III.2012.1080p.WEB-DL.AAC2.0.H264-FGT
【又名】:
【格式】: 1080P
【文件大小】: 3.07 GB
【时长】: 86分钟
【国家】: 美国
【影片类型】: 喜剧
【主演】: 玛丽·伊丽莎白·文斯蒂德 / 查理·辛 / 比尔·默瑞
【上映时间】: 2013-02-08
【评分】: 4.8 5.8
【剧情介绍】: 点击查看

内容简介




点击查看文件测试信息 [+]
MediaInfo
Video
ID                                       : 1
Format                                   : AVC
Format/Info                              : Advanced Video Codec
Format profile                           : High@L4
Format settings                          : CABAC / 4 Ref Frames
Format settings, CABAC                   : Yes
Format settings, ReFrames                : 4 frames
Codec ID                                 : V_MPEG4/ISO/AVC
Duration                                 : 1 h 25 min
Bit rate                                 : 4 963 kb/s
Width                                    : 1 920 pixels
Height                                   : 1 030 pixels
Display aspect ratio                     : 1.85:1
Frame rate mode                          : Constant
Frame rate                               : 23.976 (23976/1000) FPS
Color space                              : YUV
Chroma subsampling                       : 4:2:0
Bit depth                                : 8 bits
Scan type                                : Progressive
Bits/(Pixel*Frame)                       : 0.105
Stream size                              : 2.97 GiB (97%)
Title                                    : A.Glimpse.Inside.the.Mind.of.Charles.Swan.III.2012.1080p.WEB-DL.AAC2.0.H.264-FGT
Language                                 : English
Default                                  : Yes
Forced                                   : No
Color range                              : Limited
Color primaries                          : BT.709
Transfer characteristics                 : BT.709
Matrix coefficients                      : BT.709

Audio
ID                                       : 2
Format                                   : AAC
Format/Info                              : Advanced Audio Codec
Format profile                           : LC
Codec ID                                 : A_AAC-2
Duration                                 : 1 h 25 min
Bit rate                                 : 155 kb/s
Channel(s)                               : 2 channels
Channel positions                        : Front: L R
Sampling rate                            : 48.0 kHz
Frame rate                               : 46.875 FPS (1024 SPF)
Compression mode                         : Lossy
Stream size                              : 95.2 MiB (3%)
Title                                    : A.Glimpse.Inside.the.Mind.of.Charles.Swan.III.2012.1080p.WEB-DL.AAC2.0.H.264-FGT
Language                                 : English
Default                                  : Yes
Forced                                   : No

Text
ID                                       : 3
Format                                   : UTF-8
Codec ID                                 : S_TEXT/UTF8
Codec ID/Info                            : UTF-8 Plain Text
Duration                                 : 1 h 25 min
Bit rate                                 : 197 b/s
Count of elements                        : 1859
Stream size                              : 124 KiB (0%)
Language                                 : English
Default                                  : No
Forced                                   : No

Menu
00:00:00.000                             : en:Chapter 1
00:08:46.000                             : en:Chapter 2
00:16:44.000                             : en:Chapter 3
00:25:48.000                             : en:Chapter 4
00:33:42.000                             : en:Chapter 5
00:44:13.000                             : en:Chapter 6
00:55:22.000                             : en:Chapter 7
01:03:45.000                             : en:Chapter 8
01:11:05.000                             : en:Chapter 9
01:19:02.000                             : en:Chapter 10




评论