Tomb.Invader.2018.1080p.WEB-DL.DD5.1.H264-FGT

2018-03-13 22:34 0 220 29
【中文片名】:
【片名】: Tomb.Invader.2018.1080p.WEB-DL.DD5.1.H264-FGT
【又名】:
【格式】: 1080P
【文件大小】: 3.24 GB
【时长】:
【国家】: 美国
【影片类型】: 喜剧
【主演】:
【上映时间】:
【评分】: 0.0 0.0
【剧情介绍】: 点击查看

内容简介




点击查看文件测试信息 [+]
MediaInfo
Video
ID                                       : 1
Format                                   : AVC
Format/Info                              : Advanced Video Codec
Format profile                           : High@L4
Format settings                          : CABAC / 4 Ref Frames
Format settings, CABAC                   : Yes
Format settings, ReFrames                : 4 frames
Codec ID                                 : V_MPEG4/ISO/AVC
Duration                                 : 1 h 23 min
Bit rate                                 : 5 195 kb/s
Width                                    : 1 916 pixels
Height                                   : 1 076 pixels
Display aspect ratio                     : 16:9
Frame rate mode                          : Constant
Frame rate                               : 23.976 (23976/1000) FPS
Color space                              : YUV
Chroma subsampling                       : 4:2:0
Bit depth                                : 8 bits
Scan type                                : Progressive
Bits/(Pixel*Frame)                       : 0.105
Stream size                              : 3.01 GiB (93%)
Title                                    : Tomb.Invader.2018.1080p.WEB-DL.DD5.1.H.264-FGT
Language                                 : English
Default                                  : Yes
Forced                                   : No
Color range                              : Limited
Color primaries                          : BT.709
Transfer characteristics                 : BT.709
Matrix coefficients                      : BT.709

Audio
ID                                       : 2
Format                                   : AC-3
Format/Info                              : Audio Coding 3
Codec ID                                 : A_AC3
Duration                                 : 1 h 23 min
Bit rate mode                            : Constant
Bit rate                                 : 384 kb/s
Channel(s)                               : 6 channels
Channel positions                        : Front: L C R, Side: L R, LFE
Sampling rate                            : 48.0 kHz
Frame rate                               : 31.250 FPS (1536 SPF)
Bit depth                                : 16 bits
Compression mode                         : Lossy
Stream size                              : 228 MiB (7%)
Title                                    : Tomb.Invader.2018.1080p.WEB-DL.DD5.1.H.264-FGT
Language                                 : English
Service kind                             : Complete Main
Default                                  : Yes
Forced                                   : No

Text
ID                                       : 3
Format                                   : UTF-8
Codec ID                                 : S_TEXT/UTF8
Codec ID/Info                            : UTF-8 Plain Text
Duration                                 : 1 h 19 min
Bit rate                                 : 63 b/s
Count of elements                        : 1256
Stream size                              : 37.1 KiB (0%)
Language                                 : English
Default                                  : Yes
Forced                                   : No

Menu
00:00:00.000                             : en:1
00:11:12.000                             : en:2
00:21:03.000                             : en:3
00:31:26.000                             : en:4
00:40:30.000                             : en:5
00:50:03.000                             : en:6
01:00:53.000                             : en:7
01:12:07.000                             : en:8
01:19:44.000                             : en:9




评论