新生化危机Resident.Evil.Welcome.to.Raccoon.City.2021.2160p.UHD.Remux.HEVC.DoVi.TrueHD.Atmos.7.1-playBD

2023-10-12 19:14 1 85 8
【中文片名】: 新生化危机
【片名】: Resident.Evil.Welcome.to.Raccoon.City.2021.2160p.UHD.Remux.HEVC.DoVi.TrueHD.Atmos.7.1-playBD
【又名】: 恶灵古堡首部曲:拉昆市(台),生化危机:欢迎来到浣熊市,恶灵古堡,Biohazard
【格式】: REMUX
【国家】: 德国 / 美国 / 加拿大 / 法国
【影片类型】: 动作 / 科幻 / 恐怖
【主演】: 卡雅·斯考达里奥 / 尼尔·麦克唐纳 / 汤姆·霍珀 / 阿万·乔贾 / 约翰内斯·罗伯茨 / 唐纳尔·罗格 / 查德·洛克 / 汉娜·乔恩-卡门 / 高莉莉 / 帕特·桑顿 / 乔什·克鲁达斯 / 帕梅拉·麦克唐纳 / 斯蒂芬妮·霍金斯 / 萨米·阿泽罗 / 罗比·阿梅尔 / 内森·达莱斯 / 珍妮特·波特 / 霍莉·德·巴罗斯 / 达伦·W·马吕努克 / 卡森`曼宁
【时长】: 107分钟
【上映时间】: 2021-11-24(加拿大)
【评分】: 0 4.6
【文件大小】: 43540
【剧情介绍】: 点击查看

您所在用户组暂时无法直接查看隐藏内容,请登陆后重试!!!

内容简介

General
Unique ID                                : 133758123438786333962868553454487526129 (0x64A0E0A562A6C4AD067B6E877912DAF1)
Complete name                            : D:NewResident.Evil.Welcome.to.Raccoon.City.2021.2160p.UHD.Remux.HEVC.DoVi.TrueHD.Atmos.7.1-playBDResident.Evil.Welcome.to.Raccoon.City.2021.2160p.UHD.Remux.HEVC.DoVi.TrueHD.Atmos.7.1-playBD.mkv
Format                                   : Matroska
Format version                           : Version 4
File size                                : 43.5 GiB
Duration                                 : 1 h 47 min
Overall bit rate mode                    : Variable
Overall bit rate                         : 58.0 Mb/s
Frame rate                               : 23.976 FPS
Encoded date                             : 2022-02-09 13:44:59 UTC
Writing application                      : mkvmerge v64.0.0 ('Willows') 64-bit
Writing library                          : libebml v1.4.2 + libmatroska v1.6.4

Video
ID                                       : 2
ID in the original source medium         : 4113 (0x1011)
Format                                   : HEVC
Format/Info                              : High Efficiency Video Coding
Format profile                           : Main 10@L5.1@High
HDR format                               : Dolby Vision, Version 1.0, dvhe.07.06, BL+EL+RPU, Blu-ray compatible / SMPTE ST 2086, HDR10 compatible
Codec ID                                 : V_MPEGH/ISO/HEVC
Duration                                 : 1 h 47 min
Bit rate                                 : 52.7 Mb/s
Width                                    : 3 840 pixels
Height                                   : 2 160 pixels
Display aspect ratio                     : 16:9
Frame rate mode                          : Constant
Frame rate                               : 23.976 (24000/1001) FPS
Color space                              : YUV
Chroma subsampling                       : 4:2:0 (Type 2)
Bit depth                                : 10 bits
Bits/(Pixel*Frame)                       : 0.265
Stream size                              : 39.6 GiB (91%)
Language                                 : English
Default                                  : No
Forced                                   : No
Color range                              : Limited
Color primaries                          : BT.2020
Transfer characteristics                 : PQ
Matrix coefficients                      : BT.2020 non-constant
Mastering display color primaries        : Display P3
Mastering display luminance              : min: 0.0001 cd/m2, max: 1000 cd/m2
Maximum Content Light Level              : 748 cd/m2
Maximum Frame-Average Light Level        : 241 cd/m2
Original source medium                   : Blu-ray

Audio #1
ID                                       : 3
Format                                   : MLP FBA 16-ch
Format/Info                              : Meridian Lossless Packing FBA with 16-channel presentation
Commercial name                          : Dolby TrueHD with Dolby Atmos
Codec ID                                 : A_TRUEHD
Duration                                 : 1 h 47 min
Bit rate mode                            : Variable
Bit rate                                 : 4 487 kb/s
Maximum bit rate                         : 8 118 kb/s
Channel(s)                               : 8 channels
Channel layout                           : L R C LFE Ls Rs Lb Rb
Sampling rate                            : 48.0 kHz
Frame rate                               : 1 200.000 FPS (40 SPF)
Compression mode                         : Lossless
Stream size                              : 3.37 GiB (8%)
Language                                 : English
Default                                  : Yes
Forced                                   : No
Number of dynamic objects                : 11
Bed channel count                        : 1 channel
Bed channel configuration                : LFE

Audio #2
ID                                       : 4
Format                                   : AC-3
Format/Info                              : Audio Coding 3
Commercial name                          : Dolby Digital
Codec ID                                 : A_AC3
Duration                                 : 1 h 47 min
Bit rate mode                            : Constant
Bit rate                                 : 640 kb/s
Channel(s)                               : 6 channels
Channel layout                           : L R C LFE Ls Rs
Sampling rate                            : 48.0 kHz
Frame rate                               : 31.250 FPS (1536 SPF)
Compression mode                         : Lossy
Stream size                              : 492 MiB (1%)
Language                                 : English
Service kind                             : Complete Main
Default                                  : No
Forced                                   : No

Text #1
ID                                       : 1
Format                                   : UTF-8
Codec ID                                 : S_TEXT/UTF8
Codec ID/Info                            : UTF-8 Plain Text
Duration                                 : 1 h 39 min
Bit rate                                 : 31 b/s
Frame rate                               : 0.134 FPS
Count of elements                        : 800
Stream size                              : 23.0 KiB (0%)
Language                                 : Romanian
Default                                  : No
Forced                                   : No

Text #2
ID                                       : 5
Format                                   : PGS
Codec ID                                 : S_HDMV/PGS
Codec ID/Info                            : Picture based subtitle format used on BDs/HD-DVDs
Duration                                 : 1 h 40 min
Bit rate                                 : 23.5 kb/s
Frame rate                               : 0.325 FPS
Count of elements                        : 1959
Stream size                              : 16.9 MiB (0%)
Language                                 : English
Default                                  : No
Forced                                   : No

Text #3
ID                                       : 6
Format                                   : PGS
Codec ID                                 : S_HDMV/PGS
Codec ID/Info                            : Picture based subtitle format used on BDs/HD-DVDs
Duration                                 : 1 h 39 min
Bit rate                                 : 19.5 kb/s
Frame rate                               : 0.268 FPS
Count of elements                        : 1600
Stream size                              : 13.9 MiB (0%)
Language                                 : English
Default                                  : No
Forced                                   : No

Text #4
ID                                       : 7
Format                                   : PGS
Codec ID                                 : S_HDMV/PGS
Codec ID/Info                            : Picture based subtitle format used on BDs/HD-DVDs
Duration                                 : 1 h 44 min
Bit rate                                 : 15.7 kb/s
Frame rate                               : 0.252 FPS
Count of elements                        : 1582
Stream size                              : 11.7 MiB (0%)
Language                                 : French
Default                                  : No
Forced                                   : No

Text #5
ID                                       : 8
Format                                   : PGS
Codec ID                                 : S_HDMV/PGS
Codec ID/Info                            : Picture based subtitle format used on BDs/HD-DVDs
Duration                                 : 1 h 46 min
Bit rate                                 : 16.9 kb/s
Frame rate                               : 0.260 FPS
Count of elements                        : 1654
Stream size                              : 12.8 MiB (0%)
Language                                 : Spanish
Default                                  : No
Forced                                   : No

Menu
00:00:00.000                             : Chapter 01
00:10:02.644                             : Chapter 02
00:18:14.176                             : Chapter 03
00:26:05.773                             : Chapter 04
00:33:51.071                             : Chapter 05
00:38:29.599                             : Chapter 06
00:45:53.834                             : Chapter 07
00:51:21.245                             : Chapter 08
00:54:49.286                             : Chapter 09
01:00:29.751                             : Chapter 10
01:05:52.991                             : Chapter 11
01:10:04.075                             : Chapter 12
01:13:17.810                             : Chapter 13
01:14:56.325                             : Chapter 14
01:18:43.344                             : Chapter 15
01:32:31.671                             : Chapter 16
01:40:54.048                             : Chapter 17

       

评论

#1
Thank very much for sharing.........
2024-02-11 23:45
0 0 回复 删除