魔鬼代言人The.Devils.Advocate.1997.2160p.UNRATED.SDR.AI.Enhance.ENG.RUS.ITA.CASTELLANO.LATINO.DTS-HD.Master.DDP5.1.x265.MKV-BEN.THE.MEN

2023-11-21 13:14 0 113 3
【中文片名】: 魔鬼代言人
【片名】: The.Devils.Advocate.1997.2160p.UNRATED.SDR.AI.Enhance.ENG.RUS.ITA.CASTELLANO.LATINO.DTS-HD.Master.DDP5.1.x265.MKV-BEN.THE.MEN
【又名】: 追魂交易
【格式】: SDR
【国家】: 美国 / 德国
【影片类型】: 剧情 / 悬疑 / 惊悚
【主演】: Al Pacino / 查理兹·塞隆 / 泰勒·海克福德 / Connie Nielsen / 杰弗瑞·琼斯 / Jonathan Lemkin / Keanu Reeves / 托尼·吉尔罗伊
【时长】: 144 分钟,Turkey: 136 分钟(TV version)
【上映时间】: 1997-10-17
【评分】: 7.5 8.1
【文件大小】: 71540
【剧情介绍】: 点击查看

您所在用户组暂时无法直接查看隐藏内容,请登陆后重试!!!

内容简介

The.Devils.Advocate.1997.2160p.UNRATED.SDR.AI.Enhance.ENG.RUS.ITA.CASTELLANO.LATINO.DTS-HD.Master.DDP5.1.x265.MKV-BEN.THE.MEN

https://www.imdb.com/title/tt0118971/

An exceptionally-adept Florida lawyer is offered a job at a high-end New York City law firm with a high-end boss--the biggest opportunity of his career to date.

ENG SUBS






Format                                   : Matroska
Format version                           : Version 4
File size                                : 71.5 GiB
Duration                                 : 2 h 23 min
Overall bit rate mode                    : Variable
Overall bit rate                         : 71.2 Mb/s
Frame rate                               : 23.976 FPS
Movie name                               : The.Devils.Advocate.1997.2160p.UNRATED.SDR[Ben The Men]
Encoded date                             : 2023-11-21 02:33:36 UTC
Writing application                      : mkvmerge v80.0 ('Roundabout') 64-bit
Writing library                          : libebml v1.4.4 + libmatroska v1.7.1

Video
ID                                       : 1
Format                                   : HEVC
Format/Info                              : High Efficiency Video Coding
Format profile                           : Main@L5.2@Main
Codec ID                                 : V_MPEGH/ISO/HEVC
Duration                                 : 2 h 23 min
Bit rate                                 : 62.6 Mb/s
Width                                    : 3 840 pixels
Height                                   : 2 160 pixels
Display aspect ratio                     : 16:9
Frame rate mode                          : Constant
Frame rate                               : 23.976 (24000/1001) FPS
Color space                              : YUV
Chroma subsampling                       : 4:2:0
Bit depth                                : 8 bits
Bits/(Pixel*Frame)                       : 0.315
Stream size                              : 63.0 GiB (88%)
Language                                 : English
Default                                  : Yes
Forced                                   : No
Color range                              : Limited
Color primaries                          : BT.709
Transfer characteristics                 : BT.709
Matrix coefficients                      : BT.709

Audio #1
ID                                       : 2
Format                                   : DTS XLL
Format/Info                              : Digital Theater Systems
Commercial name                          : DTS-HD Master Audio
Codec ID                                 : A_DTS
Duration                                 : 2 h 23 min
Bit rate mode                            : Variable
Bit rate                                 : 3 692 kb/s
Channel(s)                               : 6 channels
Channel layout                           : C L R Ls Rs LFE
Sampling rate                            : 48.0 kHz
Frame rate                               : 93.750 FPS (512 SPF)
Bit depth                                : 24 bits
Compression mode                         : Lossless
Stream size                              : 3.71 GiB (5%)
Title                                    : BTM DTS-HD Master
Language                                 : English
Default                                  : No
Forced                                   : No

Audio #2
ID                                       : 3
Format                                   : E-AC-3
Format/Info                              : Enhanced AC-3
Commercial name                          : Dolby Digital Plus
Codec ID                                 : A_EAC3
Duration                                 : 2 h 23 min
Bit rate mode                            : Constant
Bit rate                                 : 960 kb/s
Channel(s)                               : 6 channels
Channel layout                           : L R C LFE Ls Rs
Sampling rate                            : 48.0 kHz
Frame rate                               : 31.250 FPS (1536 SPF)
Compression mode                         : Lossy
Stream size                              : 988 MiB (1%)
Title                                    : BTM DDP5.1
Language                                 : English
Service kind                             : Complete Main
Default                                  : Yes
Forced                                   : No

Audio #3
ID                                       : 4
Format                                   : E-AC-3
Format/Info                              : Enhanced AC-3
Commercial name                          : Dolby Digital Plus
Codec ID                                 : A_EAC3
Duration                                 : 2 h 23 min
Bit rate mode                            : Constant
Bit rate                                 : 959 kb/s
Channel(s)                               : 6 channels
Channel layout                           : L R C LFE Ls Rs
Sampling rate                            : 44.1 kHz
Frame rate                               : 57.422 FPS (768 SPF)
Compression mode                         : Lossy
Stream size                              : 988 MiB (1%)
Title                                    : BTM DDP5.1
Language                                 : Spanish
Service kind                             : Complete Main
Default                                  : Yes
Forced                                   : No

Audio #4
ID                                       : 5
Format                                   : E-AC-3
Format/Info                              : Enhanced AC-3
Commercial name                          : Dolby Digital Plus
Codec ID                                 : A_EAC3
Duration                                 : 2 h 23 min
Bit rate mode                            : Constant
Bit rate                                 : 960 kb/s
Channel(s)                               : 6 channels
Channel layout                           : L R C LFE Ls Rs
Sampling rate                            : 48.0 kHz
Frame rate                               : 31.250 FPS (1536 SPF)
Compression mode                         : Lossy
Stream size                              : 988 MiB (1%)
Title                                    : BTM DDP5.1
Language                                 : Spanish
Service kind                             : Complete Main
Default                                  : Yes
Forced                                   : No

Audio #5
ID                                       : 6
Format                                   : E-AC-3
Format/Info                              : Enhanced AC-3
Commercial name                          : Dolby Digital Plus
Codec ID                                 : A_EAC3
Duration                                 : 2 h 23 min
Bit rate mode                            : Constant
Bit rate                                 : 960 kb/s
Channel(s)                               : 6 channels
Channel layout                           : L R C LFE Ls Rs
Sampling rate                            : 48.0 kHz
Frame rate                               : 31.250 FPS (1536 SPF)
Compression mode                         : Lossy
Stream size                              : 988 MiB (1%)
Title                                    : BTM DDP5.1
Language                                 : Italian
Service kind                             : Complete Main
Default                                  : Yes
Forced                                   : No

Audio #6
ID                                       : 7
Format                                   : E-AC-3
Format/Info                              : Enhanced AC-3
Commercial name                          : Dolby Digital Plus
Codec ID                                 : A_EAC3
Duration                                 : 2 h 23 min
Bit rate mode                            : Constant
Bit rate                                 : 960 kb/s
Channel(s)                               : 6 channels
Channel layout                           : L R C LFE Ls Rs
Sampling rate                            : 48.0 kHz
Frame rate                               : 31.250 FPS (1536 SPF)
Compression mode                         : Lossy
Stream size                              : 988 MiB (1%)
Title                                    : BTM DDP5.1
Language                                 : Russian
Service kind                             : Complete Main
Default                                  : Yes
Forced                                   : No
  User comments    Sort newest first

评论