地狱游乐园Hell.Fest.2018.2160p.UHD.Blu-ray.Remux.HEVC.DV.DTS-X.MA.7.1-HDT

2023-11-26 02:18 0 28 1
【中文片名】: 地狱游乐园
【片名】: Hell.Fest.2018.2160p.UHD.Blu-ray.Remux.HEVC.DV.DTS-X.MA.7.1-HDT
【又名】: 血祭哈啰喂(港)
【格式】: REMUX
【国家】: 美国
【影片类型】: 恐怖
【主演】: 托尼·托德 / 格雷戈里·普罗金 / 贝克斯·泰勒-克劳斯 / 马特·默丘里奥 / 埃尔·格雷厄姆 / 肖恩·麦克米伦 / 塞斯·M·舍伍德 / Blair Butler / 雷格·爱德沃兹 / 艾米·福赛思 / 考特尼·迪茨 / 迈克尔·图尔克 / 克里斯蒂安·詹姆斯 / 布鲁克·杰伊·泰勒 / 本杰明·韦弗
【时长】: 89分钟
【上映时间】: 2018-09-28(美国)
【评分】: 5.6 5.5
【文件大小】: 47990
【剧情介绍】: 点击查看

您所在用户组暂时无法直接查看隐藏内容,请登陆后重试!!!

内容简介


Hell Fest (2018)
https://www.imdb.com/title/tt1999890/

MOVIE INFO
Genre: Horror Thriller
Stars: Cynthea Mercado, Stephen Conroy, Amy Forsyth
Plot: A masked serial killer turns a horror-themed amusement park into his own personal playground, terrorizing a group of friends while the rest of the patrons believe that it is all part of the show.
Audio: English - DTS-HD

Included subtitles
English [PGS]
Spanish [PGS]

-----------------------------------------------------------------------------------

Screenshots


-----------------------------------------------------------------------------------


 MEDIA INFOGeneral
Unique ID                                : 146580643932634464435069883802639266183 (0x6E4667B75E85D0D59378A03FCAC9F187)
Complete name                            : Hell Fest 2018 2160p UHD Blu-ray Remux HEVC DV DTS-X MA 7.1-HDT.mkv
Format                                   : Matroska
Format version                           : Version 4
File size                                : 48.0 GiB
Duration                                 : 1 h 28 min
Overall bit rate mode                    : Variable
Overall bit rate                         : 77.4 Mb/s
Movie name                               : Hell Fest
Encoded date                             : UTC 2022-12-21 13:00:28
Writing application                      : mkvmerge v72.0.0 ('Minuano (Six-eight)') 64-bit
Writing library                          : libebml v1.4.4 + libmatroska v1.7.1
Cover                                    : Yes
Attachments                              : cover.jpg

Video
ID                                       : 1
ID in the original source medium         : 4113 (0x1011)
Format                                   : HEVC
Format/Info                              : High Efficiency Video Coding
Format profile                           : Main 10@L5.1@High
HDR format                               : Dolby Vision, Version 1.0, dvhe.07.06, BL+EL+RPU, Blu-ray compatible / SMPTE ST 2086, HDR10 compatible
Codec ID                                 : V_MPEGH/ISO/HEVC
Duration                                 : 1 h 28 min
Bit rate                                 : 70.9 Mb/s
Width                                    : 3 840 pixels
Height                                   : 2 160 pixels
Display aspect ratio                     : 16:9
Frame rate mode                          : Constant
Frame rate                               : 23.976 (24000/1001) FPS
Color space                              : YUV
Chroma subsampling                       : 4:2:0 (Type 2)
Bit depth                                : 10 bits
Bits/(Pixel*Frame)                       : 0.357
Stream size                              : 44.0 GiB (92%)
Language                                 : English
Default                                  : Yes
Forced                                   : No
Color range                              : Limited
Color primaries                          : BT.2020
Transfer characteristics                 : PQ
Matrix coefficients                      : BT.2020 non-constant
Mastering display color primaries        : Display P3
Mastering display luminance              : min: 0.0001 cd/m2, max: 1000 cd/m2
Maximum Content Light Level              : 1000 cd/m2
Maximum Frame-Average Light Level        : 830 cd/m2
Original source medium                   : Blu-ray

Audio
ID                                       : 2
ID in the original source medium         : 4352 (0x1100)
Format                                   : DTS XLL X
Format/Info                              : Digital Theater Systems
Commercial name                          : DTS-HD Master Audio
Codec ID                                 : A_DTS
Duration                                 : 1 h 28 min
Bit rate mode                            : Variable
Bit rate                                 : 6 331 kb/s
Channel(s)                               : 8 channels
Channel(s)_Original                      : Object Based
ChannelLayout_Original                   : Object Based
Sampling rate                            : 48.0 kHz
Frame rate                               : 93.750 FPS (512 SPF)
Bit depth                                : 24 bits
Stream size                              : 3.93 GiB (8%)
Language                                 : English
Default                                  : Yes
Forced                                   : No
Original source medium                   : Blu-ray

Text #1
ID                                       : 3
Format                                   : PGS
Codec ID                                 : S_HDMV/PGS
Codec ID/Info                            : Picture based subtitle format used on BDs/HD-DVDs
Duration                                 : 1 h 23 min
Bit rate                                 : 39.5 kb/s
Frame rate                               : 0.449 FPS
Count of elements                        : 2248
Stream size                              : 23.5 MiB (0%)
Language                                 : English
Default                                  : No
Forced                                   : No

Text #2
ID                                       : 4
Format                                   : PGS
Codec ID                                 : S_HDMV/PGS
Codec ID/Info                            : Picture based subtitle format used on BDs/HD-DVDs
Duration                                 : 1 h 23 min
Bit rate                                 : 51.3 kb/s
Frame rate                               : 0.586 FPS
Count of elements                        : 2936
Stream size                              : 30.6 MiB (0%)
Title                                    : SDH
Language                                 : English
Default                                  : No
Forced                                   : No

Text #3
ID                                       : 5
Format                                   : PGS
Codec ID                                 : S_HDMV/PGS
Codec ID/Info                            : Picture based subtitle format used on BDs/HD-DVDs
Duration                                 : 1 h 23 min
Bit rate                                 : 34.1 kb/s
Frame rate                               : 0.454 FPS
Count of elements                        : 2270
Stream size                              : 20.4 MiB (0%)
Title                                    : Latin American
Language                                 : Spanish
Default                                  : No
Forced                                   : No

Menu
00:00:00.000                             : en:Chapter 01
00:04:28.977                             : en:Chapter 02
00:12:09.979                             : en:Chapter 03
00:15:44.026                             : en:Chapter 04
00:22:44.029                             : en:Chapter 05
00:28:22.242                             : en:Chapter 06
00:35:17.365                             : en:Chapter 07
00:40:37.226                             : en:Chapter 08
00:43:37.781                             : en:Chapter 09
00:49:16.620                             : en:Chapter 10
00:53:22.407                             : en:Chapter 11
01:00:07.770                             : en:Chapter 12
01:06:43.582                             : en:Chapter 13
01:11:33.455                             : en:Chapter 14
01:16:33.589                             : en:Chapter 15
01:21:53.325                             : en:Chapter 16

  User comments    Sort newest first

评论