泰坦尼克号Titanic.1997.2160p.REMUX.Dolby.Vision.And.HDR10.DDP5.1.DV.x265.MP4-BEN.THE.MEN

2023-11-30 03:53 0 106 2
【中文片名】: 泰坦尼克号
【片名】: Titanic.1997.2160p.REMUX.Dolby.Vision.And.HDR10.DDP5.1.DV.x265.MP4-BEN.THE.MEN
【又名】: 铁达尼号(港,台)
【格式】: HDR
【国家】: 美国
【影片类型】: 剧情 / 历史 / 冒险 / 爱情 / 灾难
【主演】: 凯特·温丝莱特 / Ewan Stewart / 凯西·贝茨 / 弗兰西丝·费舍 / 维克多·加博 / James Cameron / Bill Paxton / 比利·赞恩 / Suzy Amis / 伯纳德·希尔 / 莱昂纳多·迪卡普里奥 / Gloria Stuart
【时长】: 194分钟
【上映时间】: 1997-12-19(美国),1998-04-03(中国大陆)
【评分】: 8.9 8.9
【文件大小】: 70870
【剧情介绍】: 点击查看

您所在用户组暂时无法直接查看隐藏内容,请登陆后重试!!!

内容简介

Titanic.1997.2160p.REMUX.Dolby.Vision.And.HDR10.DDP5.1.DV.x265.MP4-BEN.THE.MEN

https://www.imdb.com/title/tt0120338/

A seventeen-year-old aristocrat falls in love with a kind but poor artist aboard the luxurious, ill-fated R.M.S. Titanic.

ENG SUBS ONLY








Format                                   : MPEG-4
Format profile                           : Base Media
Codec ID                                 : isom (isom/dby1/iso2/mp41)
File size                                : 70.9 GiB
Duration                                 : 3 h 14 min
Overall bit rate mode                    : Variable
Overall bit rate                         : 52.1 Mb/s
Frame rate                               : 23.976 FPS
Movie name                               : Titanic.1997.2160p.REMUX.Dolby.Vision[Ben The Men]
Tagged date                              : 2023-11-29 19:06:22 UTC
Writing application                      : Lavf60.3.100

Video
ID                                       : 1
Format                                   : HEVC
Format/Info                              : High Efficiency Video Coding
Format profile                           : Main 10@L5.1@High
HDR format                               : Dolby Vision, Version 1.0, dvhe.08.06, BL+RPU, HDR10 compatible / SMPTE ST 2086, HDR10 compatible
Codec ID                                 : hev1
Codec ID/Info                            : High Efficiency Video Coding
Duration                                 : 3 h 14 min
Bit rate                                 : 49.8 Mb/s
Width                                    : 3 840 pixels
Height                                   : 2 160 pixels
Display aspect ratio                     : 16:9
Frame rate mode                          : Constant
Frame rate                               : 23.976 (24000/1001) FPS
Color space                              : YUV
Chroma subsampling                       : 4:2:0 (Type 2)
Bit depth                                : 10 bits
Bits/(Pixel*Frame)                       : 0.250
Stream size                              : 67.7 GiB (96%)
Tagged date                              : 2023-11-29 19:06:22 UTC
Color range                              : Limited
Color primaries                          : BT.2020
Transfer characteristics                 : PQ
Matrix coefficients                      : BT.2020 non-constant
Mastering display color primaries        : BT.2020
Mastering display luminance              : min: 0.0001 cd/m2, max: 1000 cd/m2
Maximum Content Light Level              : 283 cd/m2
Maximum Frame-Average Light Level        : 196 cd/m2
Codec configuration box                  : hvcC+dvvC

Audio #1
ID                                       : 2
Format                                   : E-AC-3
Format/Info                              : Enhanced AC-3
Commercial name                          : Dolby Digital Plus
Codec ID                                 : ec-3
Duration                                 : 3 h 14 min
Bit rate mode                            : Constant
Bit rate                                 : 960 kb/s
Channel(s)                               : 6 channels
Channel layout                           : L R C LFE Ls Rs
Sampling rate                            : 48.0 kHz
Frame rate                               : 31.250 FPS (1536 SPF)
Compression mode                         : Lossy
Stream size                              : 1.31 GiB (2%)
Title                                    : BTM DDP5.1
Language                                 : English
Service kind                             : Complete Main
Default                                  : Yes
Alternate group                          : 1
Tagged date                              : 2023-11-29 19:06:22 UTC

Audio #2
ID                                       : 3
Format                                   : AC-3
Format/Info                              : Audio Coding 3
Commercial name                          : Dolby Digital
Codec ID                                 : ac-3
Duration                                 : 3 h 14 min
Bit rate mode                            : Constant
Bit rate                                 : 640 kb/s
Channel(s)                               : 6 channels
Channel layout                           : L R C LFE Ls Rs
Sampling rate                            : 48.0 kHz
Frame rate                               : 31.250 FPS (1536 SPF)
Compression mode                         : Lossy
Stream size                              : 891 MiB (1%)
Title                                    : BTM DD 5.1
Language                                 : English
Service kind                             : Complete Main
Default                                  : Yes
Alternate group                          : 2
Tagged date                              : 2023-11-29 19:06:22 UTC

Audio #3
ID                                       : 4
Format                                   : AC-3
Format/Info                              : Audio Coding 3
Commercial name                          : Dolby Digital
Codec ID                                 : ac-3
Duration                                 : 3 h 14 min
Bit rate mode                            : Constant
Bit rate                                 : 224 kb/s
Channel(s)                               : 2 channels
Channel layout                           : L R
Sampling rate                            : 48.0 kHz
Frame rate                               : 31.250 FPS (1536 SPF)
Compression mode                         : Lossy
Stream size                              : 312 MiB (0%)
Title                                    : Commentary with director/writer/co-producer/co-editor James Cameron
Language                                 : English
Service kind                             : Complete Main
Default                                  : No
Alternate group                          : 3
Tagged date                              : 2023-11-29 19:06:22 UTC

Audio #4
ID                                       : 5
Format                                   : AC-3
Format/Info                              : Audio Coding 3
Commercial name                          : Dolby Digital
Codec ID                                 : ac-3
Duration                                 : 3 h 14 min
Bit rate mode                            : Constant
Bit rate                                 : 224 kb/s
Channel(s)                               : 2 channels
Channel layout                           : L R
Sampling rate                            : 48.0 kHz
Frame rate                               : 31.250 FPS (1536 SPF)
Compression mode                         : Lossy
Stream size                              : 312 MiB (0%)
Title                                    : Commentary with co-producer Jon Landau, and executive producer Rae Sanchini
Language                                 : English
Service kind                             : Complete Main
Default                                  : No
Alternate group                          : 4
Tagged date                              : 2023-11-29 19:06:22 UTC

Audio #5
ID                                       : 6
Format                                   : AC-3
Format/Info                              : Audio Coding 3
Commercial name                          : Dolby Digital
Codec ID                                 : ac-3
Duration                                 : 3 h 14 min
Bit rate mode                            : Constant
Bit rate                                 : 224 kb/s
Channel(s)                               : 2 channels
Channel layout                           : L R
Sampling rate                            : 48.0 kHz
Frame rate                               : 31.250 FPS (1536 SPF)
Compression mode                         : Lossy
Stream size                              : 312 MiB (0%)
Title                                    : Commentary with historical supervisors of the film, Don Lynch and Don Marchelle
Language                                 : English
Service kind                             : Complete Main
Default                                  : No
Alternate group                          : 5
Tagged date                              : 2023-11-29 19:06:22 UTC


  User comments    Sort newest first

评论