杀死比尔Kill.Bill.Vol.1.2003.2160p.Ai-Upscaled.10bit.H265.DTS-HD.MA.5.1 FLAC.5.1-DirtyHippie RIFE.4.14v2-60fps

2024-02-12 14:59 0 45 3
【中文片名】: 杀死比尔
【片名】: Kill.Bill.Vol.1.2003.2160p.Ai-Upscaled.10bit.H265.DTS-HD.MA.5.1 FLAC.5.1-DirtyHippie RIFE.4.14v2-60fps
【又名】: 追杀比尔
【格式】: x264
【国家】: 美国
【影片类型】: 动作 / 惊悚 / 犯罪
【主演】: 乌玛·瑟曼 / 迈克尔·马德森 / 刘玉玲 / 昆汀·塔伦蒂诺 / 千叶真一 / 达丽尔·汉纳 / 薇薇卡·福克斯 / 大卫·卡拉丁 / 栗山千明 / 朱莉·德赖弗斯
【时长】: 111 分钟,Japan: 112 分钟
【上映时间】: 2003-10-10
【评分】: 8.1 7.9
【文件大小】: 21870
【剧情介绍】: 点击查看

您所在用户组暂时无法直接查看隐藏内容,请登陆后重试!!!

内容简介

Kill Bill Volume 1 (2003), Ai-upscaled to UHD 2160p from the best quality 1080p Blu-ray source I could find, then increased framerate to 60FPS via SVP 4 Pro TensorRT RIFE 4.14 v2.

Sample Included!

Audio is in English, Multi PGS subtitles included. Enjoy!

This film is encoded with high-quality motion interpolation with Real-Time Intermediate Flow Estimation (RIFE). If you HATE motion interpolation or HFR for example, 60fps (smooth motion), then please do us all a favor and hit the back button, because this isn't for you. ;)

If you LOVE smooth motion, then you are in for a treat! :D

Immerse. Experience. Electrify. Discover Hyperreality, with HFR.

Forget the blurry edges of standard frame rates. Imagine a world where action explodes off the screen with crystalline clarity, where emotions flicker across faces with breathtaking detail, where every punch, every pirouette, every bullet whizzes by in hyper-vivid reality. This is the future of cinema, unveiled by High Frame Rate (HFR).

HFR shatters the 24fps glass ceiling, unleashing a torrent of 60 or 120 frames per second, etc. That redefines cinematic immersion. No more motion blur shrouding epic battles, no more missed nuances in delicate performances. Experience a world where reality blurs with fiction, where you're no longer watching a movie, you're living it.

HFR isn't just about speed. It's about precision. It's about capturing the raw beauty and brutality of movement with unmatched fidelity. Witness the intricate choreography of a fight scene, the heart-stopping plunge of a freefall, the tear glistening on a cheek – all with a depth and sharpness that leaves traditional film breathless.

Hollywood is on the cusp of a revolution. Directors like Ang Lee and James Cameron are pioneers, pushing the boundaries of storytelling with HFR's hyper-real lens. From action blockbusters to intimate dramas, this new technology unlocks a universe of possibilities.

Embrace the future. Step into the hyperreality. Demand HFR. Because tomorrow's cinema isn't just watched, it's experienced.

Don't just see the story. Feel it. Breathe it. Live it. HFR

Complete name                            : Kill.Bill.Vol.1.2003.2160p.Ai-Upscaled.10bit.H265.DTS-HD.MA.5.1+FLAC.5.1-DirtyHippie_RIFE.4.14v2-60fps.mkv
Format                                   : Matroska
Format version                           : Version 4
File size                                : 21.7 GiB
Duration                                 : 1 h 50 min
Overall bit rate mode                    : Variable
Overall bit rate                         : 28.0 Mb/s
Frame rate                               : 59.940 FPS
Movie name                               : Kill Bill: Vol. 1 (2003)
Encoded date                             : 2024-02-12 06:05:04 UTC
Writing application                      : mkvmerge v82.0 ('I'm The President') 64-bit
Writing library                          : libebml v1.4.5 + libmatroska v1.7.1 / Lavf60.20.100
IMDB                                     : tt0266697
TMDB                                     : movie/24
VIDEOAI                                  : Enhanced using prob-4; mode: manual; revert compression at 24.9854; recover details at 11.9497; sharpen at 15.652199999999999; reduce noise at 49; dehalo at 7.90761; anti-alias/deblur at -6.69942; and focus fix Off. Changed resolution to 3840x2160

Video
ID                                       : 1
Format                                   : HEVC
Format/Info                              : High Efficiency Video Coding
Format profile                           : Main 10@L5.1@Main
Codec ID                                 : V_MPEGH/ISO/HEVC
Duration                                 : 1 h 50 min
Bit rate                                 : 24.4 Mb/s
Width                                    : 3 840 pixels
Height                                   : 2 144 pixels
Display aspect ratio                     : 16:9
Frame rate mode                          : Variable
Frame rate                               : 59.940 FPS
Original frame rate                      : 59.524 FPS
Color space                              : YUV
Chroma subsampling                       : 4:2:0
Bit depth                                : 10 bits
Bits/(Pixel*Frame)                       : 0.049
Time code of first frame                 : 00:59:59:28
Stream size                              : 18.9 GiB (87%)
Default                                  : No
Forced                                   : No
Color range                              : Limited
Matrix coefficients                      : BT.709

Audio #1
ID                                       : 2
Format                                   : DTS XLL
Format/Info                              : Digital Theater Systems
Commercial name                          : DTS-HD Master Audio
Codec ID                                 : A_DTS
Duration                                 : 1 h 50 min
Bit rate mode                            : Variable
Bit rate                                 : 2 217 kb/s
Channel(s)                               : 6 channels
Channel layout                           : C L R Ls Rs LFE
Sampling rate                            : 48.0 kHz
Frame rate                               : 93.750 FPS (512 SPF)
Bit depth                                : 16 bits
Compression mode                         : Lossless
Stream size                              : 1.71 GiB (8%)
Title                                    : English / DTS-HD Master Audio / 5.1 / 48 kHz / 2218 kbps / 16-bit
Language                                 : English
Default                                  : Yes
Forced                                   : No

Audio #2
ID                                       : 3
Format                                   : FLAC
Format/Info                              : Free Lossless Audio Codec
Codec ID                                 : A_FLAC
Duration                                 : 1 h 50 min
Bit rate mode                            : Variable
Bit rate                                 : 1 347 kb/s
Channel(s)                               : 6 channels
Channel layout                           : L R C LFE Ls Rs
Sampling rate                            : 48.0 kHz
Frame rate                               : 11.719 FPS (4096 SPF)
Bit depth                                : 16 bits
Compression mode                         : Lossless
Stream size                              : 1.04 GiB (5%)
Title                                    : English / FLAC / 5.1 / 48 kHz / 1347 kbps / 16-bit
Language                                 : English
Default                                  : No
Forced                                   : No
MD5 of the unencoded content             : E9B9E6DBD3DF4970A1BBF66113F99CEA

Text #1
ID                                       : 4
Format                                   : PGS
Muxing mode                              : zlib
Codec ID                                 : S_HDMV/PGS
Codec ID/Info                            : Picture based subtitle format used on BDs/HD-DVDs
Duration                                 : 1 h 27 min
Bit rate                                 : 4 345 b/s
Frame rate                               : 0.060 FPS
Count of elements                        : 315
Stream size                              : 2.71 MiB (0%)
Title                                    : Forced
Language                                 : English
Default                                  : Yes
Forced                                   : Yes

Text #2
ID                                       : 5
Format                                   : PGS
Muxing mode                              : zlib
Codec ID                                 : S_HDMV/PGS
Codec ID/Info                            : Picture based subtitle format used on BDs/HD-DVDs
Duration                                 : 1 h 41 min
Bit rate                                 : 12.3 kb/s
Frame rate                               : 0.221 FPS
Count of elements                        : 1352
Stream size                              : 8.94 MiB (0%)
Language                                 : English
Default                                  : No
Forced                                   : No

Text #3
ID                                       : 6
Format                                   : PGS
Muxing mode                              : zlib
Codec ID                                 : S_HDMV/PGS
Codec ID/Info                            : Picture based subtitle format used on BDs/HD-DVDs
Duration                                 : 1 h 42 min
Bit rate                                 : 14.7 kb/s
Frame rate                               : 0.282 FPS
Count of elements                        : 1738
Stream size                              : 10.8 MiB (0%)
Title                                    : SDH
Language                                 : English
Default                                  : No
Forced                                   : No

Text #4
ID                                       : 7
Format                                   : PGS
Muxing mode                              : zlib
Codec ID                                 : S_HDMV/PGS
Codec ID/Info                            : Picture based subtitle format used on BDs/HD-DVDs
Duration                                 : 1 h 42 min
Bit rate                                 : 7 771 b/s
Frame rate                               : 0.202 FPS
Count of elements                        : 1245
Stream size                              : 5.70 MiB (0%)
Language                                 : Chinese
Default                                  : No
Forced                                   : No

Text #5
ID                                       : 8
Format                                   : PGS
Muxing mode                              : zlib
Codec ID                                 : S_HDMV/PGS
Codec ID/Info                            : Picture based subtitle format used on BDs/HD-DVDs
Duration                                 : 1 h 42 min
Bit rate                                 : 13.6 kb/s
Frame rate                               : 0.190 FPS
Count of elements                        : 1172
Stream size                              : 10.0 MiB (0%)
Language                                 : German
Default                                  : No
Forced                                   : No

Text #6
ID                                       : 9
Format                                   : PGS
Muxing mode                              : zlib
Codec ID                                 : S_HDMV/PGS
Codec ID/Info                            : Picture based subtitle format used on BDs/HD-DVDs
Duration                                 : 1 h 42 min
Bit rate                                 : 10.9 kb/s
Frame rate                               : 0.186 FPS
Count of elements                        : 1148
Stream size                              : 8.01 MiB (0%)
Language                                 : Italian
Default                                  : No
Forced                                   : No

Text #7
ID                                       : 10
Format                                   : PGS
Muxing mode                              : zlib
Codec ID                                 : S_HDMV/PGS
Codec ID/Info                            : Picture based subtitle format used on BDs/HD-DVDs
Duration                                 : 1 h 42 min
Bit rate                                 : 7 028 b/s
Frame rate                               : 0.152 FPS
Count of elements                        : 933
Stream size                              : 5.16 MiB (0%)
Language                                 : Japanese
Default                                  : No
Forced                                   : No

Text #8
ID                                       : 11
Format                                   : PGS
Muxing mode                              : zlib
Codec ID                                 : S_HDMV/PGS
Codec ID/Info                            : Picture based subtitle format used on BDs/HD-DVDs
Duration                                 : 1 h 42 min
Bit rate                                 : 8 572 b/s
Frame rate                               : 0.202 FPS
Count of elements                        : 1244
Stream size                              : 6.29 MiB (0%)
Language                                 : Korean
Default                                  : No
Forced                                   : No

Text #9
ID                                       : 12
Format                                   : PGS
Muxing mode                              : zlib
Codec ID                                 : S_HDMV/PGS
Codec ID/Info                            : Picture based subtitle format used on BDs/HD-DVDs
Duration                                 : 1 h 42 min
Bit rate                                 : 12.4 kb/s
Frame rate                               : 0.199 FPS
Count of elements                        : 1228
Stream size                              : 9.12 MiB (0%)
Title                                    : Castilian
Language                                 : Spanish
Default                                  : No
Forced                                   : No

Text #10
ID                                       : 13
Format                                   : PGS
Muxing mode                              : zlib
Codec ID                                 : S_HDMV/PGS
Codec ID/Info                            : Picture based subtitle format used on BDs/HD-DVDs
Duration                                 : 1 h 42 min
Bit rate                                 : 11.4 kb/s
Frame rate                               : 0.187 FPS
Count of elements                        : 1153
Stream size                              : 8.37 MiB (0%)
Title                                    : Latin American
Language                                 : Spanish
Default                                  : No
Forced                                   : No





















  User comments    Sort newest first

评论