银色子弹Silver.Bullet.1985.2160p.DV.HDR10Plus.Ai-Enhanced.H265.DD.2.0-RIFE.4.15v2-60fps-DirtyHippie

2024-04-02 14:04 0 39 0
【中文片名】: 银色子弹
【片名】: Silver.Bullet.1985.2160p.DV.HDR10Plus.Ai-Enhanced.H265.DD.2.0-RIFE.4.15v2-60fps-DirtyHippie
【又名】: 狼魔
【格式】: HDR
【国家】: 美国
【影片类型】: 剧情 / 冒险 / 悬疑 / 惊悚 / 恐怖
【主演】: 斯蒂芬 金 / Daniel Attias
【时长】: 95 分钟
【上映时间】: 1985-10-11
【评分】: 6.4 6.6
【文件大小】: 14930
【剧情介绍】: 点击查看

您所在用户组暂时无法直接查看隐藏内容,请登陆后重试!!!

内容简介

Stephen King's: Silver Bullet (1985) 2160p, -- DOLBY VISION in 60FPS !!! :D -- Ai Enhanced from a high quality, 2160p Blu-ray REMUX as the source. I then increased the framerate from the default 24fps, to 60fps via SVP 4 PRO + TensorRT RIFE 4.15v2 :)

THIS WAS NOT FILMED IN HFR, it is encoded using high-quality motion interpolation with Real-Time Intermediate Flow Estimation (RIFE). If you HATE motion interpolation for example, 60fps (smooth motion), then please do us all a favor and hit the back button, because this isn't for you....

If you LOVE smooth motion, then you are in for a treat! :D

Sample included.

English audio and MULTI PGS subtitles included. Enjoy!
DD 2.0 track included and set to default track.

Immerse. Experience. Electrify. Discover Hyperreality, with HFR.

Forget the blurry edges of standard frame rates. Imagine a world where action explodes off the screen with crystalline clarity, where emotions flicker across faces with breathtaking detail, where every punch, every pirouette, every bullet whizzes by in hyper-vivid reality. This is the future of cinema, unveiled by High Frame Rate (HFR).

HFR shatters the 24fps glass ceiling, unleashing a torrent of 60 or 120 frames per second, etc. That redefines cinematic immersion. No more motion blur shrouding epic battles, no more missed nuances in delicate performances. Experience a world where reality blurs with fiction, where you're no longer watching a movie, you're living it.

HFR isn't just about speed. It's about precision. It's about capturing the raw beauty and brutality of movement with unmatched fidelity. Witness the intricate choreography of a fight scene, the heart-stopping plunge of a freefall, the tear glistening on a cheek – all with a depth and sharpness that leaves traditional film breathless.

Hollywood is on the cusp of a revolution. Directors like Ang Lee and James Cameron are pioneers, pushing the boundaries of storytelling with HFR's hyper-real lens. From action blockbusters to intimate dramas, this new technology unlocks a universe of possibilities.

Embrace the future. Step into the hyperreality. Demand HFR. Because tomorrow's cinema isn't just watched, it's experienced.

Don't just see the story. Feel it. Breathe it. Live it. HFR

Complete name                            : Silver.Bullet.1985.2160p.DV.HDR10Plus.Ai-Enhanced.H265.DD.2.0-RIFE.4.15v2-60fps-DirtyHippie.mkv
Format                                   : Matroska
Format version                           : Version 4
File size                                : 14.8 GiB
Duration                                 : 1 h 34 min
Overall bit rate mode                    : Variable
Overall bit rate                         : 22.3 Mb/s
Frame rate                               : 59.940 FPS
Movie name                               : Silver Bullet
Released date                            : 1985-10-10
Encoded date                             : 2024-04-02 05:44:58 UTC
Writing application                      : mkvmerge v83.0 ('Circle Of Friends') 64-bit
Writing library                          : libebml v1.4.5 + libmatroska v1.7.1 / Lavf60.20.100
ACTOR                                    : Laura Warner
DIRECTOR                                 : Daniel Attias
GENRE                                    : Horror
IMDB                                     : tt0090021
SUBTITLE                                 : It started in May. In a small town. And every month after that whenever the moon was full... it came back.
SUMMARY                                  : The small city of Tarker's Mill is startled by a series of sadistic murders. The population fears that this is the work of a maniac. During a search a mysterious, hairy creature is observed. This strange appearance is noticed once a month. People lock themselves up at night, but there's one boy who's still outside, he's preparing the barbecue.
TMDB                                     : 17898
VIDEOAI                                  : Enhanced using prob-4; mode: manual; revert compression at 21; recover details at 9; sharpen at 26; reduce noise at 46; dehalo at 9; anti-alias/deblur at -1; and focus fix Standard

Video
ID                                       : 1
Format                                   : HEVC
Format/Info                              : High Efficiency Video Coding
Format profile                           : Main 10@L6@Main
HDR format                               : Dolby Vision, Version 1.0, Profile 8.1, dvhe.08.09, BL+RPU, no metadata compression, HDR10 compatible / SMPTE ST 2086, Version HDR10, HDR10 compatible / SMPTE ST 2094 App 4, Version HDR10+ Profile B, HDR10+ Profile B compatible
Codec ID                                 : V_MPEGH/ISO/HEVC
Duration                                 : 1 h 34 min
Bit rate                                 : 20.8 Mb/s
Width                                    : 3 840 pixels
Height                                   : 2 144 pixels
Display aspect ratio                     : 16:9
Frame rate mode                          : Constant
Frame rate                               : 59.940 (60000/1001) FPS
Original frame rate                      : 59.524 FPS
Color space                              : YUV
Chroma subsampling                       : 4:2:0
Bit depth                                : 10 bits
Bits/(Pixel*Frame)                       : 0.042
Time code of first frame                 : 00:00:06:28
Stream size                              : 13.8 GiB (94%)
Default                                  : Yes
Forced                                   : No
Color range                              : Limited
Color primaries                          : BT.2020
Transfer characteristics                 : PQ
Matrix coefficients                      : BT.2020 non-constant
Mastering display color primaries        : Display P3
Mastering display luminance              : min: 0.0001 cd/m2, max: 1000 cd/m2
Maximum Content Light Level              : 967
Maximum Frame-Average Light Level        : 80

Audio #1
ID                                       : 2
Format                                   : AC-3
Format/Info                              : Audio Coding 3
Commercial name                          : Dolby Digital
Codec ID                                 : A_AC3
Duration                                 : 1 h 34 min
Bit rate mode                            : Constant
Bit rate                                 : 640 kb/s
Channel(s)                               : 2 channels
Channel layout                           : L R
Sampling rate                            : 48.0 kHz
Frame rate                               : 31.250 FPS (1536 SPF)
Compression mode                         : Lossy
Stream size                              : 433 MiB (3%)
Title                                    : DD 2.0 Mono Mix
Language                                 : English
Service kind                             : Complete Main
Default                                  : Yes
Forced                                   : No

Audio #2
ID                                       : 3
Format                                   : FLAC
Format/Info                              : Free Lossless Audio Codec
Codec ID                                 : A_FLAC
Duration                                 : 1 h 34 min
Bit rate mode                            : Variable
Bit rate                                 : 751 kb/s
Channel(s)                               : 2 channels
Channel layout                           : L R
Sampling rate                            : 48.0 kHz
Frame rate                               : 11.719 FPS (4096 SPF)
Bit depth                                : 24 bits
Compression mode                         : Lossless
Stream size                              : 508 MiB (3%)
Title                                    : Dual Mono Mix
Language                                 : English
Default                                  : No
Forced                                   : No
SOURCE                                   : Umbrella Entertainment Blu-ray (AUS)
MD5 of the unencoded content             : 1DA73100B4B4378A5A30A7F715CDB981

Text #1
ID                                       : 4
Format                                   : PGS
Muxing mode                              : zlib
Codec ID                                 : S_HDMV/PGS
Codec ID/Info                            : Picture based subtitle format used on BDs/HD-DVDs
Duration                                 : 1 h 30 min
Bit rate                                 : 23.7 kb/s
Frame rate                               : 0.300 FPS
Count of elements                        : 1628
Stream size                              : 15.3 MiB (0%)
Title                                    : Regular
Language                                 : English
Default                                  : Yes
Forced                                   : No
SOURCE                                   : Plaion (Koch Media)

Text #2
ID                                       : 5
Format                                   : PGS
Muxing mode                              : zlib
Codec ID                                 : S_HDMV/PGS
Codec ID/Info                            : Picture based subtitle format used on BDs/HD-DVDs
Duration                                 : 1 h 33 min
Bit rate                                 : 32.5 kb/s
Frame rate                               : 0.455 FPS
Count of elements                        : 2560
Stream size                              : 21.8 MiB (0%)
Title                                    : SDH
Language                                 : English
Default                                  : No
Forced                                   : No
SOURCE                                   : Shout Factory! Blu-ray

Text #3
ID                                       : 6
Format                                   : UTF-8
Codec ID                                 : S_TEXT/UTF8
Codec ID/Info                            : UTF-8 Plain Text
Duration                                 : 1 h 30 min
Bit rate                                 : 45 b/s
Frame rate                               : 0.198 FPS
Count of elements                        : 1076
Stream size                              : 30.1 KiB (0%)
Title                                    : Regular / Max
Language                                 : English
Default                                  : No
Forced                                   : No
SOURCE                                   : MAX WEB-DL

Text #4
ID                                       : 7
Format                                   : UTF-8
Codec ID                                 : S_TEXT/UTF8
Codec ID/Info                            : UTF-8 Plain Text
Duration                                 : 1 h 31 min
Bit rate                                 : 50 b/s
Frame rate                               : 0.227 FPS
Count of elements                        : 1244
Stream size                              : 33.8 KiB (0%)
Title                                    : SDH / Max
Language                                 : English
Default                                  : No
Forced                                   : No
SOURCE                                   : MAX WEB-DL

Text #5
ID                                       : 8
Format                                   : PGS
Muxing mode                              : zlib
Codec ID                                 : S_HDMV/PGS
Codec ID/Info                            : Picture based subtitle format used on BDs/HD-DVDs
Duration                                 : 1 h 30 min
Bit rate                                 : 26.4 kb/s
Frame rate                               : 0.303 FPS
Count of elements                        : 1646
Stream size                              : 17.1 MiB (0%)
Language                                 : German
Default                                  : No
Forced                                   : No
SOURCE                                   : Plaion (Koch Media)

Text #6
ID                                       : 9
Format                                   : PGS
Muxing mode                              : zlib
Codec ID                                 : S_HDMV/PGS
Codec ID/Info                            : Picture based subtitle format used on BDs/HD-DVDs
Duration                                 : 1 h 31 min
Bit rate                                 : 20.4 kb/s
Frame rate                               : 0.303 FPS
Count of elements                        : 1662
Stream size                              : 13.3 MiB (0%)
Language                                 : Italian
Default                                  : No
Forced                                   : No
SOURCE                                   : Shout Factory! Blu-ray

Text #7
ID                                       : 10
Format                                   : UTF-8
Codec ID                                 : S_TEXT/UTF8
Codec ID/Info                            : UTF-8 Plain Text
Duration                                 : 1 h 31 min
Bit rate                                 : 50 b/s
Frame rate                               : 0.213 FPS
Count of elements                        : 1169
Stream size                              : 33.6 KiB (0%)
Title                                    : Spanish (Latin American)
Language                                 : Spanish
Default                                  : No
Forced                                   : No
SOURCE                                   : MAX WEB-DL













  User comments    Sort newest first

评论