撕裂的末日Equilibrium.2002.2160p.Ai-Upscaled.Open.Matte.10Bit.H265.DTS-HD.MA.5.1.RIFE.4.15v2-60fps-DirtyHippie

2024-04-02 18:27 0 60 4
【中文片名】: 撕裂的末日
【片名】: Equilibrium.2002.2160p.Ai-Upscaled.Open.Matte.10Bit.H265.DTS-HD.MA.5.1.RIFE.4.15v2-60fps-DirtyHippie
【又名】: 重装任务
【格式】: x264
【国家】: 美国
【影片类型】: 剧情 / 动作 / 惊悚 / 科幻
【主演】: 威廉·菲德内尔 / 安古斯·麦克菲登 / 多米尼克·珀塞尔 / 艾米丽·沃森 / 科特·维莫 / 克里斯蒂安·贝尔 / 泰雅·迪格斯 / 肖恩·宾
【时长】: 107 分钟
【上映时间】: 2002-12-06(美国)
【评分】: 7.4 7.4
【文件大小】: 24120
【剧情介绍】: 点击查看

您所在用户组暂时无法直接查看隐藏内容,请登陆后重试!!!

内容简介

Equilibrium (2002) 2160p, Ai-upscaled from a quality open matte 1080p Blu-Ray RIP as the source. I then increased the framerate from the default 24fps, to 60fps via SVP 4 PRO + TensorRT RIFE 4.15v2 :)

THIS WAS NOT FILMED IN HFR, it is encoded using high-quality motion interpolation with Real-Time Intermediate Flow Estimation (RIFE). If you HATE motion interpolation for example, 60fps (smooth motion), then please do us all a favor and hit the back button, because this isn't for you....

If you LOVE smooth motion, then you are in for a treat! :D

Sample included.

English and French audio with English PGS subtitles included. Enjoy!
DD 5.1 tracks included.

Immerse. Experience. Electrify. Discover Hyperreality, with HFR.

Forget the blurry edges of standard frame rates. Imagine a world where action explodes off the screen with crystalline clarity, where emotions flicker across faces with breathtaking detail, where every punch, every pirouette, every bullet whizzes by in hyper-vivid reality. This is the future of cinema, unveiled by High Frame Rate (HFR).

HFR shatters the 24fps glass ceiling, unleashing a torrent of 60 or 120 frames per second, etc. That redefines cinematic immersion. No more motion blur shrouding epic battles, no more missed nuances in delicate performances. Experience a world where reality blurs with fiction, where you're no longer watching a movie, you're living it.

HFR isn't just about speed. It's about precision. It's about capturing the raw beauty and brutality of movement with unmatched fidelity. Witness the intricate choreography of a fight scene, the heart-stopping plunge of a freefall, the tear glistening on a cheek – all with a depth and sharpness that leaves traditional film breathless.

Hollywood is on the cusp of a revolution. Directors like Ang Lee and James Cameron are pioneers, pushing the boundaries of storytelling with HFR's hyper-real lens. From action blockbusters to intimate dramas, this new technology unlocks a universe of possibilities.

Embrace the future. Step into the hyperreality. Demand HFR. Because tomorrow's cinema isn't just watched, it's experienced.

Don't just see the story. Feel it. Breathe it. Live it. HFR

Complete name                            : Equilibrium.2002.2160p.Ai-Upscaled.Open.Matte.10Bit.H265.DTS-HD.MA.5.1.RIFE.4.15v2-60fps-DirtyHippie.mkv
Format                                   : Matroska
Format version                           : Version 4
File size                                : 23.9 GiB
Duration                                 : 1 h 46 min
Overall bit rate mode                    : Variable
Overall bit rate                         : 31.9 Mb/s
Frame rate                               : 59.940 FPS
Movie name                               : Equilibrium
Encoded date                             : 2024-04-01 14:58:32 UTC
Writing application                      : mkvmerge v79.0 ('Funeral Pyres') 64-bit
Writing library                          : libebml v1.4.4 + libmatroska v1.7.1 / Lavf60.20.100
VIDEOAI                                  : Enhanced using ahq-12. Changed resolution to 3840x2160

Video
ID                                       : 1
Format                                   : HEVC
Format/Info                              : High Efficiency Video Coding
Format profile                           : Main 10@L5.2@Main
Codec ID                                 : V_MPEGH/ISO/HEVC
Duration                                 : 1 h 46 min
Bit rate                                 : 26.9 Mb/s
Width                                    : 3 840 pixels
Height                                   : 2 144 pixels
Display aspect ratio                     : 16:9
Frame rate mode                          : Variable
Frame rate                               : 59.940 FPS
Original frame rate                      : 60.976 FPS
Color space                              : YUV
Chroma subsampling                       : 4:2:0
Bit depth                                : 10 bits
Bits/(Pixel*Frame)                       : 0.055
Stream size                              : 20.1 GiB (84%)
Default                                  : No
Forced                                   : No
Color range                              : Limited
Matrix coefficients                      : BT.709

Audio #1
ID                                       : 2
ID in the original source medium         : 4352 (0x1100)
Format                                   : DTS XLL
Format/Info                              : Digital Theater Systems
Commercial name                          : DTS-HD Master Audio
Codec ID                                 : A_DTS
Duration                                 : 1 h 46 min
Bit rate mode                            : Variable
Bit rate                                 : 2 178 kb/s
Channel(s)                               : 6 channels
Channel layout                           : C L R Ls Rs LFE
Sampling rate                            : 48.0 kHz
Frame rate                               : 93.750 FPS (512 SPF)
Bit depth                                : 16 bits
Compression mode                         : Lossless
Stream size                              : 1.63 GiB (7%)
Title                                    : Surround 5.1
Language                                 : English
Default                                  : Yes
Forced                                   : No
Original source medium                   : Blu-ray

Audio #2
ID                                       : 3
ID in the original source medium         : 4352 (0x1100)
Format                                   : DTS
Format/Info                              : Digital Theater Systems
Codec ID                                 : A_DTS
Duration                                 : 1 h 46 min
Bit rate mode                            : Constant
Bit rate                                 : 1 509 kb/s
Channel(s)                               : 6 channels
Channel layout                           : C L R Ls Rs LFE
Sampling rate                            : 48.0 kHz
Frame rate                               : 93.750 FPS (512 SPF)
Bit depth                                : 16 bits
Compression mode                         : Lossy
Stream size                              : 1.13 GiB (5%)
Title                                    : Surround 5.1
Language                                 : English
Default                                  : No
Forced                                   : No
Original source medium                   : Blu-ray

Audio #3
ID                                       : 4
ID in the original source medium         : 4353 (0x1101)
Format                                   : AC-3
Format/Info                              : Audio Coding 3
Commercial name                          : Dolby Digital
Codec ID                                 : A_AC3
Duration                                 : 1 h 46 min
Bit rate mode                            : Constant
Bit rate                                 : 640 kb/s
Channel(s)                               : 6 channels
Channel layout                           : L R C LFE Ls Rs
Sampling rate                            : 48.0 kHz
Frame rate                               : 31.250 FPS (1536 SPF)
Bit depth                                : 32 bits
Compression mode                         : Lossy
Stream size                              : 489 MiB (2%)
Title                                    : Surround 5.1
Language                                 : English
Service kind                             : Complete Main
Default                                  : No
Forced                                   : No
Original source medium                   : Blu-ray
AC3_metadata cmixlev                     : -3.0 dB
surmixlev                               : -3 dB

Audio #4
ID                                       : 5
ID in the original source medium         : 4354 (0x1102)
Format                                   : AC-3
Format/Info                              : Audio Coding 3
Commercial name                          : Dolby Digital
Codec ID                                 : A_AC3
Duration                                 : 1 h 46 min
Bit rate mode                            : Constant
Bit rate                                 : 192 kb/s
Channel(s)                               : 2 channels
Channel layout                           : L R
Sampling rate                            : 48.0 kHz
Frame rate                               : 31.250 FPS (1536 SPF)
Bit depth                                : 32 bits
Compression mode                         : Lossy
Stream size                              : 147 MiB (1%)
Title                                    : Stereo
Language                                 : French
Service kind                             : Complete Main
Default                                  : No
Forced                                   : No
Original source medium                   : Blu-ray

Audio #5
ID                                       : 6
ID in the original source medium         : 4355 (0x1103)
Format                                   : AC-3
Format/Info                              : Audio Coding 3
Commercial name                          : Dolby Digital
Codec ID                                 : A_AC3
Duration                                 : 1 h 46 min
Bit rate mode                            : Constant
Bit rate                                 : 256 kb/s
Channel(s)                               : 2 channels
Channel layout                           : L R
Sampling rate                            : 48.0 kHz
Frame rate                               : 31.250 FPS (1536 SPF)
Bit depth                                : 32 bits
Compression mode                         : Lossy
Stream size                              : 196 MiB (1%)
Title                                    : Stereo
Language                                 : English
Service kind                             : Complete Main
Default                                  : No
Forced                                   : No
Original source medium                   : Blu-ray

Audio #6
ID                                       : 7
ID in the original source medium         : 4356 (0x1104)
Format                                   : AC-3
Format/Info                              : Audio Coding 3
Commercial name                          : Dolby Digital
Codec ID                                 : A_AC3
Duration                                 : 1 h 46 min
Bit rate mode                            : Constant
Bit rate                                 : 256 kb/s
Channel(s)                               : 2 channels
Channel layout                           : L R
Sampling rate                            : 48.0 kHz
Frame rate                               : 31.250 FPS (1536 SPF)
Bit depth                                : 32 bits
Compression mode                         : Lossy
Stream size                              : 196 MiB (1%)
Title                                    : Stereo
Language                                 : English
Service kind                             : Complete Main
Default                                  : No
Forced                                   : No
Original source medium                   : Blu-ray

Text
ID                                       : 8
ID in the original source medium         : 4608 (0x1200)
Format                                   : PGS
Muxing mode                              : zlib
Codec ID                                 : S_HDMV/PGS
Codec ID/Info                            : Picture based subtitle format used on BDs/HD-DVDs
Duration                                 : 1 h 38 min
Bit rate                                 : 18.1 kb/s
Frame rate                               : 0.244 FPS
Count of elements                        : 1446
Stream size                              : 12.8 MiB (0%)
Language                                 : English
Default                                  : No
Forced                                   : No
Original source medium                   : Blu-ray















  User comments    Sort newest first

评论