特技狂人The.Fall.Guy.2024.2160p.DV.HDR10Plus.Ai-Enhanced.DDP5.1.Atmos.DV.HDR.H265.RIFE.4.15-60fps-DirtyHippie

2024-05-23 15:35 0 132 13
【中文片名】: 特技狂人
【片名】: The.Fall.Guy.2024.2160p.DV.HDR10Plus.Ai-Enhanced.DDP5.1.Atmos.DV.HDR.H265.RIFE.4.15-60fps-DirtyHippie
【又名】: 特技玩家(台),特技猎人,坠落的人
【格式】: HDR
【国家】: 美国
【影片类型】: 剧情 / 喜剧 / 动作
【主演】: 杰森·莫玛 / 瑞恩·高斯林 / 泰莉莎·帕尔墨 / 艾米莉·布朗特 / 德鲁·皮尔斯 / 亚伦·泰勒-约翰逊 / 李·迈杰斯 / 扎克·施坦茨 / 阿什利·米勒 / 温斯顿·杜克 / 大卫·雷奇 / 汉娜·沃丁厄姆 / 扎拉·迈克尔斯 / 罗伯特·麦克法兰 / 亚当·杜恩 / 许玮伦 / 本·奈特 / 马图斯 / 格雷戈里·J·弗莱尔 / 希瑟·托马斯 / 约翰·索尔 / 马德琳·威尔逊 / 卡尔基丹· 奇纳 / 安吉拉·尼卡·萨伦 / 迪·史密斯 / 梅根·奥康奈尔 / 杰克·多尔蒂 / 托尼·林奇 / 玛德琳·琼斯 / 夏洛特·伍德 / 玛格达莱娜·亚历山德拉 / 戴维·科林斯 / 诺娃·奥纳斯 / 丹尼尔·尼尔森 / 贝丝·钱皮恩 / 蒂姆·富兰克林 / 拉克尔·罗斯 / 塔什里夫·伊斯拉姆 / 内森·贝茨 / 马丁·科恩 / 塔利亚·克里尼斯 / 乔纳·埃罗菲耶夫 / 沙克里亚·塔里亚瓦特
【时长】: 127分钟
【上映时间】: 2024-05-17(中国大陆) / 2024-03-12(西南偏南电影节) / 2024-05-03(美国)
【评分】: 0 7.1
【文件大小】: 18660
【剧情介绍】: 点击查看

您所在用户组暂时无法直接查看隐藏内容,请登陆后重试!!!

内容简介

The Fall Guy (2024) 2160p, -- DOLBY VISION/HDR10+ in 60FPS !!! :D -- Ai Enhanced from a 2160p WEB-DL as the source. I then increased the framerate from the default 24fps, to 60fps via SVP 4 PRO + TensorRT RIFE 4.15 :)

Source: The Fall Guy 2024 2160p WEB-DL DDP5 1 Atmos DV HDR H 265-FLUX

Screenshots are not fully representative of the HDR10/10Plus/DV final result, as they were taken from my pc using MPC-HC with tone mapping! If I take the screenshots with my display in HDR, the result is way off, with too much exposure.
So, for now, tone mapping screenshots it is ;)

THIS WAS NOT FILMED IN HFR, it is encoded using high-quality motion interpolation with Real-Time Intermediate Flow Estimation (RIFE).

If you HATE motion interpolation for example, 60fps (smooth motion), then please do us all a favor and hit the back button, because this isn't for you....

If you LOVE smooth motion, then you are in for a treat! :D

Sample included.

English audio and English, Spanish, and French subtitles included. Enjoy!

Immerse. Experience. Electrify. Discover Hyperreality, with HFR.

Forget the blurry edges of standard frame rates. Imagine a world where action explodes off the screen with crystalline clarity, where emotions flicker across faces with breathtaking detail, where every punch, every pirouette, every bullet whizzes by in hyper-vivid reality. This is the future of cinema, unveiled by High Frame Rate (HFR).

HFR shatters the 24fps glass ceiling, unleashing a torrent of 60 or 120 frames per second, etc. That redefines cinematic immersion. No more motion blur shrouding epic battles, no more missed nuances in delicate performances. Experience a world where reality blurs with fiction, where you're no longer watching a movie, you're living it.

HFR isn't just about speed. It's about precision. It's about capturing the raw beauty and brutality of movement with unmatched fidelity. Witness the intricate choreography of a fight scene, the heart-stopping plunge of a freefall, the tear glistening on a cheek – all with a depth and sharpness that leaves traditional film breathless.

Hollywood is on the cusp of a revolution. Directors like Ang Lee and James Cameron are pioneers, pushing the boundaries of storytelling with HFR's hyper-real lens. From action blockbusters to intimate dramas, this new technology unlocks a universe of possibilities.

Embrace the future. Step into the hyperreality. Demand HFR. Because tomorrow's cinema isn't just watched, it's experienced.

Don't just see the story. Feel it. Breathe it. Live it. HFR



















Complete name                            : The.Fall.Guy.2024.2160p.DV.HDR10Plus.Ai-Enhanced.DDP5.1.Atmos.DV.HDR.H265.RIFE.4.15-60fps-DirtyHippie.mkv
Format                                   : Matroska
Format version                           : Version 4
File size                                : 18.4 GiB
Duration                                 : 2 h 6 min
Overall bit rate                         : 20.9 Mb/s
Frame rate                               : 59.940 FPS
Encoded date                             : 2024-05-23 05:52:34 UTC
Writing application                      : mkvmerge v84.0 ('Sleeper') 64-bit
Writing library                          : libebml v1.4.5 + libmatroska v1.7.1 / Lavf61.3.103
VIDEOAI                                  : Enhanced using prob-4; mode: manual; revert compression at 51.7243; recover details at 22.7075; sharpen at 35.2834; reduce noise at 3.0434900000000003; dehalo at 9.62271; anti-alias/deblur at 8.59438; and focus fix Standard

Video
ID                                       : 1
Format                                   : HEVC
Format/Info                              : High Efficiency Video Coding
Format profile                           : Main 10@L5.1@Main
HDR format                               : Dolby Vision, Version 1.0, Profile 8.1, dvhe.08.08, BL+RPU, no metadata compression, HDR10 compatible / SMPTE ST 2086, Version HDR10, HDR10 compatible / SMPTE ST 2094 App 4, Version HDR10+ Profile A, HDR10+ Profile A compatible
Codec ID                                 : V_MPEGH/ISO/HEVC
Duration                                 : 2 h 6 min
Bit rate                                 : 20.1 Mb/s
Width                                    : 3 808 pixels
Height                                   : 1 600 pixels
Display aspect ratio                     : 2.39:1
Frame rate mode                          : Constant
Frame rate                               : 59.940 (60000/1001) FPS
Original frame rate                      : 59.524 FPS
Color space                              : YUV
Chroma subsampling                       : 4:2:0
Bit depth                                : 10 bits
Bits/(Pixel*Frame)                       : 0.055
Stream size                              : 17.8 GiB (96%)
Default                                  : Yes
Forced                                   : No
Color range                              : Limited
Color primaries                          : BT.2020
Transfer characteristics                 : PQ
Matrix coefficients                      : BT.2020 non-constant
Mastering display color primaries        : Display P3
Mastering display luminance              : min: 0.0050 cd/m2, max: 4000 cd/m2
Maximum Content Light Level              : 650
Maximum Frame-Average Light Level        : 48

Audio
ID                                       : 2
Format                                   : E-AC-3 JOC
Format/Info                              : Enhanced AC-3 with Joint Object Coding
Commercial name                          : Dolby Digital Plus with Dolby Atmos
Codec ID                                 : A_EAC3
Duration                                 : 2 h 6 min
Bit rate mode                            : Constant
Bit rate                                 : 768 kb/s
Channel(s)                               : 6 channels
Channel layout                           : L R C LFE Ls Rs
Sampling rate                            : 48.0 kHz
Frame rate                               : 31.250 FPS (1536 SPF)
Bit depth                                : 32 bits
Compression mode                         : Lossy
Stream size                              : 694 MiB (4%)
Language                                 : English
Service kind                             : Complete Main
Default                                  : Yes
Forced                                   : No
Complexity index                         : 16
Number of dynamic objects                : 15
Bed channel count                        : 1 channel
Bed channel configuration                : LFE
Dialog Normalization                     : -24 dB
compr                                    : -0.28 dB
dialnorm_Average                         : -24 dB
dialnorm_Minimum                         : -24 dB
dialnorm_Maximum                         : -24 dB

Text #1
ID                                       : 3
Format                                   : UTF-8
Codec ID                                 : S_TEXT/UTF8
Codec ID/Info                            : UTF-8 Plain Text
Duration                                 : 2 h 6 min
Bit rate                                 : 92 b/s
Frame rate                               : 0.350 FPS
Count of elements                        : 2648
Stream size                              : 85.6 KiB (0%)
Language                                 : English (US)
Default                                  : Yes
Forced                                   : No

Text #2
ID                                       : 4
Format                                   : UTF-8
Codec ID                                 : S_TEXT/UTF8
Codec ID/Info                            : UTF-8 Plain Text
Duration                                 : 2 h 6 min
Bit rate                                 : 103 b/s
Frame rate                               : 0.389 FPS
Count of elements                        : 2948
Stream size                              : 96.1 KiB (0%)
Language                                 : English (US)
Default                                  : No
Forced                                   : No

Text #3
ID                                       : 5
Format                                   : UTF-8
Codec ID                                 : S_TEXT/UTF8
Codec ID/Info                            : UTF-8 Plain Text
Duration                                 : 2 h 6 min
Bit rate                                 : 78 b/s
Frame rate                               : 0.276 FPS
Count of elements                        : 2086
Stream size                              : 72.8 KiB (0%)
Language                                 : Spanish (Latin America)
Default                                  : No
Forced                                   : No

Text #4
ID                                       : 6
Format                                   : UTF-8
Codec ID                                 : S_TEXT/UTF8
Codec ID/Info                            : UTF-8 Plain Text
Duration                                 : 2 h 6 min
Bit rate                                 : 60 b/s
Frame rate                               : 0.270 FPS
Count of elements                        : 2043
Stream size                              : 56.0 KiB (0%)
Language                                 : French (CA)
Default                                  : No
Forced                                   : No


  User comments    Sort newest first atOptions = {'key' : '59354b0c63c60cd2098244312b6753ed','format' : 'iframe','height' : 50,'width' : 320,'params' : {}};document.write('');

评论