007:大战皇家赌场Casino.Royale.2006.2160p.DV.HDR10Plus.Ai-Enhanced.H265.DTS.HD.MA.5.1-MULTI-RIFE.4.17-60fps-DirtyHippie

2024-06-11 09:45 0 32 1
【中文片名】: 007:大战皇家赌场
【片名】: Casino.Royale.2006.2160p.DV.HDR10Plus.Ai-Enhanced.H265.DTS.HD.MA.5.1-MULTI-RIFE.4.17-60fps-DirtyHippie
【又名】: 007系列21:大战皇家赌场
【格式】: HDR
【国家】: 美国 / 英国 / 德国 / 捷克 / 巴哈马
【影片类型】: 动作 / 惊悚 / 犯罪
【主演】: 吉安卡罗·吉安尼尼 / 麦德斯·米科尔森 / 杰弗里·怀特 / 伊娃·格林 / 朱迪·丹奇 / 尼尔·珀维斯 / 罗伯特·韦德 / 保罗·哈吉斯 / 伊恩·弗莱明 / 马丁·坎贝尔 / 丹尼尔·克雷格
【时长】: 144分钟
【上映时间】: 2006-11-17(美国),2007-01-30(中国大陆)
【评分】: 8 7.1
【文件大小】: 28080
【剧情介绍】: 点击查看

您所在用户组暂时无法直接查看隐藏内容,请登陆后重试!!!

内容简介

Casino Royale (2006) 2160p, -- DOLBY VISION/HDR10+ in 60FPS !!! :D -- Ai Enhanced from a 2160p Blu-ray REMUX as the source. I then increased the framerate from the default 24fps, to 60fps via SVP 4 PRO + TensorRT RIFE 4.17 :)

Source: Two different sources, one for the video and one for the MULTI audio.
Video source: Casino Royale 2006 UHD BluRay 2160p DTS-HD MA 5.1 DV HEVC REMUX-FraMeSToR
MULTI Audio source: Casino Royale 2006.MULTi.UHD.Blu-ray.2160p.HDR.DTS-HDMA.5.1.HEVC-DDR

Screenshots are not fully representative of the HDR10/10Plus/DV final result, as they were taken from my pc using MPC-HC with tone mapping! If I take the screenshots with my display in HDR, the result is way off, with too much exposure.
So, for now, tone mapping screenshots it is ;)

THIS WAS NOT FILMED IN HFR, it is encoded using high-quality motion interpolation with Real-Time Intermediate Flow Estimation (RIFE).

If you HATE motion interpolation for example, 60fps (smooth motion), then please do us all a favor and hit the back button, because this isn't for you....

If you LOVE smooth motion, then you are in for a treat! :D

Sample included.

MULTI audio and MULTI PGS subtitles included. Enjoy!

Immerse. Experience. Electrify. Discover Hyperreality, with HFR.

Forget the blurry edges of standard frame rates. Imagine a world where action explodes off the screen with crystalline clarity, where emotions flicker across faces with breathtaking detail, where every punch, every pirouette, every bullet whizzes by in hyper-vivid reality. This is the future of cinema, unveiled by High Frame Rate (HFR).

HFR shatters the 24fps glass ceiling, unleashing a torrent of 60 or 120 frames per second, etc. That redefines cinematic immersion. No more motion blur shrouding epic battles, no more missed nuances in delicate performances. Experience a world where reality blurs with fiction, where you're no longer watching a movie, you're living it.

HFR isn't just about speed. It's about precision. It's about capturing the raw beauty and brutality of movement with unmatched fidelity. Witness the intricate choreography of a fight scene, the heart-stopping plunge of a freefall, the tear glistening on a cheek – all with a depth and sharpness that leaves traditional film breathless.

Hollywood is on the cusp of a revolution. Directors like Ang Lee and James Cameron are pioneers, pushing the boundaries of storytelling with HFR's hyper-real lens. From action blockbusters to intimate dramas, this new technology unlocks a universe of possibilities.

Embrace the future. Step into the hyperreality. Demand HFR. Because tomorrow's cinema isn't just watched, it's experienced.

Don't just see the story. Feel it. Breathe it. Live it. HFR





















Complete name                            : Casino.Royale.2006.2160p.DV.HDR10Plus.Ai-Enhanced.H265.DTS.HD.MA.5.1-RIFE.4.17-60fps-DirtyHippie.mkv
Format                                   : Matroska
Format version                           : Version 4
File size                                : 27.8 GiB
Duration                                 : 2 h 24 min
Overall bit rate mode                    : Variable
Overall bit rate                         : 27.5 Mb/s
Frame rate                               : 59.940 FPS
Movie name                               : Casino Royale (2006) DV
Encoded date                             : 2024-06-11 00:21:26 UTC
Writing application                      : mkvmerge v85.0 ('Shame For You') 64-bit
Writing library                          : libebml v1.4.5 + libmatroska v1.7.1 / Lavf61.3.103
IMDB                                     : tt0381061
TMDB                                     : movie/36557
VIDEOAI                                  : Enhanced using amq-13

Video
ID                                       : 1
Format                                   : HEVC
Format/Info                              : High Efficiency Video Coding
Format profile                           : Main 10@L5.1@Main
HDR format                               : Dolby Vision, Version 1.0, Profile 8.1, dvhe.08.08, BL+RPU, no metadata compression, HDR10 compatible / SMPTE ST 2086, Version HDR10, HDR10 compatible / SMPTE ST 2094 App 4, Version HDR10+ Profile A, HDR10+ Profile A compatible
Codec ID                                 : V_MPEGH/ISO/HEVC
Duration                                 : 2 h 24 min
Bit rate                                 : 18.9 Mb/s
Width                                    : 3 840 pixels
Height                                   : 1 600 pixels
Display aspect ratio                     : 2.40:1
Frame rate mode                          : Constant
Frame rate                               : 59.940 (60000/1001) FPS
Original frame rate                      : 59.524 FPS
Color space                              : YUV
Chroma subsampling                       : 4:2:0
Bit depth                                : 10 bits
Bits/(Pixel*Frame)                       : 0.051
Stream size                              : 19.1 GiB (69%)
Language                                 : English
Default                                  : Yes
Forced                                   : No
Color range                              : Limited
Color primaries                          : BT.2020
Transfer characteristics                 : PQ
Matrix coefficients                      : BT.2020 non-constant
Mastering display color primaries        : Display P3
Mastering display luminance              : min: 0.0001 cd/m2, max: 1000 cd/m2
Maximum Content Light Level              : 754
Maximum Frame-Average Light Level        : 74

Audio #1
ID                                       : 2
Format                                   : AC-3
Format/Info                              : Audio Coding 3
Commercial name                          : Dolby Digital
Codec ID                                 : A_AC3
Duration                                 : 2 h 24 min
Bit rate mode                            : Constant
Bit rate                                 : 640 kb/s
Channel(s)                               : 6 channels
Channel layout                           : L R C LFE Ls Rs
Sampling rate                            : 48.0 kHz
Frame rate                               : 31.250 FPS (1536 SPF)
Compression mode                         : Lossy
Stream size                              : 662 MiB (2%)
Title                                    : DD 5.1 - DirtyHippie Compatibility Track
Language                                 : English
Service kind                             : Complete Main
Default                                  : Yes
Forced                                   : No
Dialog Normalization                     : -31 dB
cmixlev                                  : -4.5 dB
surmixlev                                : -6 dB
dialnorm_Average                         : -31 dB
dialnorm_Minimum                         : -31 dB
dialnorm_Maximum                         : -31 dB

Audio #2
ID                                       : 3
Format                                   : DTS XLL
Format/Info                              : Digital Theater Systems
Commercial name                          : DTS-HD Master Audio
Codec ID                                 : A_DTS
Duration                                 : 2 h 24 min
Bit rate mode                            : Variable
Bit rate                                 : 3 887 kb/s
Channel(s)                               : 6 channels
Channel layout                           : C L R Ls Rs LFE
Sampling rate                            : 48.0 kHz
Frame rate                               : 93.750 FPS (512 SPF)
Bit depth                                : 24 bits
Compression mode                         : Lossless
Stream size                              : 3.92 GiB (14%)
Language                                 : English
Default                                  : No
Forced                                   : No

Audio #3
ID                                       : 4
Format                                   : DTS
Format/Info                              : Digital Theater Systems
Codec ID                                 : A_DTS
Duration                                 : 2 h 24 min
Bit rate mode                            : Constant
Bit rate                                 : 768 kb/s
Channel(s)                               : 6 channels
Channel layout                           : C L R Ls Rs LFE
Sampling rate                            : 48.0 kHz
Frame rate                               : 93.750 FPS (512 SPF)
Bit depth                                : 24 bits
Compression mode                         : Lossy
Stream size                              : 794 MiB (3%)
Language                                 : French
Default                                  : No
Forced                                   : No

Audio #4
ID                                       : 5
Format                                   : DTS
Format/Info                              : Digital Theater Systems
Codec ID                                 : A_DTS
Duration                                 : 2 h 24 min
Bit rate mode                            : Constant
Bit rate                                 : 768 kb/s
Channel(s)                               : 6 channels
Channel layout                           : C L R Ls Rs LFE
Sampling rate                            : 48.0 kHz
Frame rate                               : 93.750 FPS (512 SPF)
Bit depth                                : 24 bits
Compression mode                         : Lossy
Stream size                              : 794 MiB (3%)
Language                                 : Spanish
Default                                  : No
Forced                                   : No

Audio #5
ID                                       : 6
Format                                   : DTS
Format/Info                              : Digital Theater Systems
Codec ID                                 : A_DTS
Duration                                 : 2 h 24 min
Bit rate mode                            : Constant
Bit rate                                 : 768 kb/s
Channel(s)                               : 6 channels
Channel layout                           : C L R Ls Rs LFE
Sampling rate                            : 48.0 kHz
Frame rate                               : 93.750 FPS (512 SPF)
Bit depth                                : 24 bits
Compression mode                         : Lossy
Stream size                              : 794 MiB (3%)
Language                                 : German
Default                                  : No
Forced                                   : No

Audio #6
ID                                       : 7
Format                                   : DTS
Format/Info                              : Digital Theater Systems
Codec ID                                 : A_DTS
Duration                                 : 2 h 24 min
Bit rate mode                            : Constant
Bit rate                                 : 768 kb/s
Channel(s)                               : 6 channels
Channel layout                           : C L R Ls Rs LFE
Sampling rate                            : 48.0 kHz
Frame rate                               : 93.750 FPS (512 SPF)
Bit depth                                : 24 bits
Compression mode                         : Lossy
Stream size                              : 794 MiB (3%)
Language                                 : Italian
Default                                  : No
Forced                                   : No

Audio #7
ID                                       : 8
Format                                   : AC-3
Format/Info                              : Audio Coding 3
Commercial name                          : Dolby Digital
Codec ID                                 : A_AC3
Duration                                 : 2 h 24 min
Bit rate mode                            : Constant
Bit rate                                 : 448 kb/s
Channel(s)                               : 6 channels
Channel layout                           : L R C LFE Ls Rs
Sampling rate                            : 48.0 kHz
Frame rate                               : 31.250 FPS (1536 SPF)
Compression mode                         : Lossy
Stream size                              : 463 MiB (2%)
Language                                 : Czech
Service kind                             : Complete Main
Default                                  : No
Forced                                   : No
Dialog Normalization                     : -31 dB
compr                                    : 0.53 dB
dynrng                                   : 0.27 dB
cmixlev                                  : -3.0 dB
surmixlev                                : -3 dB
dmixmod                                  : Lt/Rt
ltrtcmixlev                              : -3.0 dB
ltrtsurmixlev                            : -3.0 dB
lorocmixlev                              : -3.0 dB
lorosurmixlev                            : -3.0 dB
dialnorm_Average                         : -31 dB
dialnorm_Minimum                         : -31 dB
dialnorm_Maximum                         : -31 dB

Audio #8
ID                                       : 9
Format                                   : AC-3
Format/Info                              : Audio Coding 3
Commercial name                          : Dolby Digital
Codec ID                                 : A_AC3
Duration                                 : 2 h 24 min
Bit rate mode                            : Constant
Bit rate                                 : 224 kb/s
Channel(s)                               : 2 channels
Channel layout                           : L R
Sampling rate                            : 48.0 kHz
Frame rate                               : 31.250 FPS (1536 SPF)
Compression mode                         : Lossy
Stream size                              : 232 MiB (1%)
Title                                    : Commentary by Crew
Language                                 : English
Service kind                             : Commentary
Default                                  : No
Forced                                   : No
Dialog Normalization                     : -31 dB
compr                                    : 0.53 dB
dynrng                                   : 0.27 dB
dsurmod                                  : Not Dolby Surround encoded
ltrtcmixlev                              : -3.0 dB
ltrtsurmixlev                            : -3.0 dB
lorocmixlev                              : -3.0 dB
lorosurmixlev                            : -3.0 dB
dialnorm_Average                         : -31 dB
dialnorm_Minimum                         : -31 dB
dialnorm_Maximum                         : -31 dB

Text #1
ID                                       : 10
Format                                   : PGS
Muxing mode                              : zlib
Codec ID                                 : S_HDMV/PGS
Codec ID/Info                            : Picture based subtitle format used on BDs/HD-DVDs
Duration                                 : 2 h 23 min
Bit rate                                 : 20.1 kb/s
Frame rate                               : 0.242 FPS
Count of elements                        : 2084
Stream size                              : 20.6 MiB (0%)
Title                                    : English
Language                                 : English
Default                                  : Yes
Forced                                   : No

Text #2
ID                                       : 11
Format                                   : PGS
Muxing mode                              : zlib
Codec ID                                 : S_HDMV/PGS
Codec ID/Info                            : Picture based subtitle format used on BDs/HD-DVDs
Duration                                 : 2 h 23 min
Bit rate                                 : 8 895 b/s
Frame rate                               : 0.242 FPS
Count of elements                        : 2086
Stream size                              : 9.15 MiB (0%)
Title                                    : Arabic
Language                                 : Arabic
Default                                  : No
Forced                                   : No

Text #3
ID                                       : 12
Format                                   : PGS
Muxing mode                              : zlib
Codec ID                                 : S_HDMV/PGS
Codec ID/Info                            : Picture based subtitle format used on BDs/HD-DVDs
Duration                                 : 2 h 23 min
Bit rate                                 : 17.0 kb/s
Frame rate                               : 0.250 FPS
Count of elements                        : 2154
Stream size                              : 17.5 MiB (0%)
Title                                    : Chinese (Cantonese)
Language                                 : Chinese
Default                                  : No
Forced                                   : No

Text #4
ID                                       : 13
Format                                   : PGS
Muxing mode                              : zlib
Codec ID                                 : S_HDMV/PGS
Codec ID/Info                            : Picture based subtitle format used on BDs/HD-DVDs
Duration                                 : 2 h 23 min
Bit rate                                 : 14.0 kb/s
Frame rate                               : 0.233 FPS
Count of elements                        : 2008
Stream size                              : 14.5 MiB (0%)
Title                                    : Chinese (Mandarin Traditional)
Language                                 : Chinese
Default                                  : No
Forced                                   : No

Text #5
ID                                       : 14
Format                                   : PGS
Muxing mode                              : zlib
Codec ID                                 : S_HDMV/PGS
Codec ID/Info                            : Picture based subtitle format used on BDs/HD-DVDs
Duration                                 : 2 h 23 min
Bit rate                                 : 16.7 kb/s
Frame rate                               : 0.248 FPS
Count of elements                        : 2144
Stream size                              : 17.1 MiB (0%)
Title                                    : Croatian
Language                                 : Croatian
Default                                  : No
Forced                                   : No

Text #6
ID                                       : 15
Format                                   : PGS
Muxing mode                              : zlib
Codec ID                                 : S_HDMV/PGS
Codec ID/Info                            : Picture based subtitle format used on BDs/HD-DVDs
Duration                                 : 2 h 23 min
Bit rate                                 : 18.0 kb/s
Frame rate                               : 0.239 FPS
Count of elements                        : 2066
Stream size                              : 18.5 MiB (0%)
Title                                    : Czech
Language                                 : Czech
Default                                  : No
Forced                                   : No

Text #7
ID                                       : 16
Format                                   : PGS
Muxing mode                              : zlib
Codec ID                                 : S_HDMV/PGS
Codec ID/Info                            : Picture based subtitle format used on BDs/HD-DVDs
Duration                                 : 2 h 23 min
Bit rate                                 : 17.6 kb/s
Frame rate                               : 0.197 FPS
Count of elements                        : 1700
Stream size                              : 18.2 MiB (0%)
Title                                    : Danish
Language                                 : Danish
Default                                  : No
Forced                                   : No

Text #8
ID                                       : 17
Format                                   : PGS
Muxing mode                              : zlib
Codec ID                                 : S_HDMV/PGS
Codec ID/Info                            : Picture based subtitle format used on BDs/HD-DVDs
Duration                                 : 2 h 23 min
Bit rate                                 : 18.6 kb/s
Frame rate                               : 0.226 FPS
Count of elements                        : 1948
Stream size                              : 19.2 MiB (0%)
Title                                    : Dutch
Language                                 : Dutch
Default                                  : No
Forced                                   : No

Text #9
ID                                       : 18
Format                                   : PGS
Muxing mode                              : zlib
Codec ID                                 : S_HDMV/PGS
Codec ID/Info                            : Picture based subtitle format used on BDs/HD-DVDs
Duration                                 : 2 h 23 min
Bit rate                                 : 16.4 kb/s
Frame rate                               : 0.219 FPS
Count of elements                        : 1892
Stream size                              : 16.9 MiB (0%)
Title                                    : Finnish
Language                                 : Finnish
Default                                  : No
Forced                                   : No

Text #10
ID                                       : 19
Format                                   : PGS
Muxing mode                              : zlib
Codec ID                                 : S_HDMV/PGS
Codec ID/Info                            : Picture based subtitle format used on BDs/HD-DVDs
Duration                                 : 2 h 23 min
Bit rate                                 : 15.8 kb/s
Frame rate                               : 0.213 FPS
Count of elements                        : 1840
Stream size                              : 16.3 MiB (0%)
Title                                    : French
Language                                 : French
Default                                  : No
Forced                                   : No

Text #11
ID                                       : 20
Format                                   : PGS
Muxing mode                              : zlib
Codec ID                                 : S_HDMV/PGS
Codec ID/Info                            : Picture based subtitle format used on BDs/HD-DVDs
Duration                                 : 2 h 23 min
Bit rate                                 : 17.5 kb/s
Frame rate                               : 0.208 FPS
Count of elements                        : 1798
Stream size                              : 18.0 MiB (0%)
Title                                    : German
Language                                 : German
Default                                  : No
Forced                                   : No

Text #12
ID                                       : 21
Format                                   : PGS
Muxing mode                              : zlib
Codec ID                                 : S_HDMV/PGS
Codec ID/Info                            : Picture based subtitle format used on BDs/HD-DVDs
Duration                                 : 2 h 23 min
Bit rate                                 : 18.0 kb/s
Frame rate                               : 0.228 FPS
Count of elements                        : 1970
Stream size                              : 18.5 MiB (0%)
Title                                    : Greek
Language                                 : Greek
Default                                  : No
Forced                                   : No

Text #13
ID                                       : 22
Format                                   : PGS
Muxing mode                              : zlib
Codec ID                                 : S_HDMV/PGS
Codec ID/Info                            : Picture based subtitle format used on BDs/HD-DVDs
Duration                                 : 2 h 23 min
Bit rate                                 : 13.2 kb/s
Frame rate                               : 0.236 FPS
Count of elements                        : 2034
Stream size                              : 13.6 MiB (0%)
Title                                    : Hebrew
Language                                 : Hebrew
Default                                  : No
Forced                                   : No

Text #14
ID                                       : 23
Format                                   : PGS
Muxing mode                              : zlib
Codec ID                                 : S_HDMV/PGS
Codec ID/Info                            : Picture based subtitle format used on BDs/HD-DVDs
Duration                                 : 2 h 23 min
Bit rate                                 : 12.3 kb/s
Frame rate                               : 0.253 FPS
Count of elements                        : 2180
Stream size                              : 12.7 MiB (0%)
Title                                    : Hindi
Language                                 : Hindi
Default                                  : No
Forced                                   : No

Text #15
ID                                       : 24
Format                                   : PGS
Muxing mode                              : zlib
Codec ID                                 : S_HDMV/PGS
Codec ID/Info                            : Picture based subtitle format used on BDs/HD-DVDs
Duration                                 : 2 h 23 min
Bit rate                                 : 15.5 kb/s
Frame rate                               : 0.226 FPS
Count of elements                        : 1952
Stream size                              : 15.9 MiB (0%)
Title                                    : Hungarian
Language                                 : Hungarian
Default                                  : No
Forced                                   : No

Text #16
ID                                       : 25
Format                                   : PGS
Muxing mode                              : zlib
Codec ID                                 : S_HDMV/PGS
Codec ID/Info                            : Picture based subtitle format used on BDs/HD-DVDs
Duration                                 : 2 h 23 min
Bit rate                                 : 18.6 kb/s
Frame rate                               : 0.241 FPS
Count of elements                        : 2080
Stream size                              : 19.2 MiB (0%)
Title                                    : Icelandic
Language                                 : Icelandic
Default                                  : No
Forced                                   : No

Text #17
ID                                       : 26
Format                                   : PGS
Muxing mode                              : zlib
Codec ID                                 : S_HDMV/PGS
Codec ID/Info                            : Picture based subtitle format used on BDs/HD-DVDs
Duration                                 : 2 h 23 min
Bit rate                                 : 22.2 kb/s
Frame rate                               : 0.240 FPS
Count of elements                        : 2070
Stream size                              : 22.8 MiB (0%)
Title                                    : Indonesian
Language                                 : Indonesian
Default                                  : No
Forced                                   : No

Text #18
ID                                       : 27
Format                                   : PGS
Muxing mode                              : zlib
Codec ID                                 : S_HDMV/PGS
Codec ID/Info                            : Picture based subtitle format used on BDs/HD-DVDs
Duration                                 : 2 h 23 min
Bit rate                                 : 20.4 kb/s
Frame rate                               : 0.247 FPS
Count of elements                        : 2134
Stream size                              : 20.9 MiB (0%)
Title                                    : Italian
Language                                 : Italian
Default                                  : No
Forced                                   : No

Text #19
ID                                       : 28
Format                                   : PGS
Muxing mode                              : zlib
Codec ID                                 : S_HDMV/PGS
Codec ID/Info                            : Picture based subtitle format used on BDs/HD-DVDs
Duration                                 : 2 h 23 min
Bit rate                                 : 13.6 kb/s
Frame rate                               : 0.220 FPS
Count of elements                        : 1900
Stream size                              : 14.0 MiB (0%)
Title                                    : Japanese
Language                                 : Japanese
Default                                  : No
Forced                                   : No

Text #20
ID                                       : 29
Format                                   : PGS
Muxing mode                              : zlib
Codec ID                                 : S_HDMV/PGS
Codec ID/Info                            : Picture based subtitle format used on BDs/HD-DVDs
Duration                                 : 2 h 23 min
Bit rate                                 : 9 669 b/s
Frame rate                               : 0.232 FPS
Count of elements                        : 2004
Stream size                              : 9.95 MiB (0%)
Title                                    : Korean
Language                                 : Korean
Default                                  : No
Forced                                   : No

Text #21
ID                                       : 30
Format                                   : PGS
Muxing mode                              : zlib
Codec ID                                 : S_HDMV/PGS
Codec ID/Info                            : Picture based subtitle format used on BDs/HD-DVDs
Duration                                 : 2 h 23 min
Bit rate                                 : 15.2 kb/s
Frame rate                               : 0.215 FPS
Count of elements                        : 1856
Stream size                              : 15.6 MiB (0%)
Title                                    : Norwegian
Language                                 : Norwegian
Default                                  : No
Forced                                   : No

Text #22
ID                                       : 31
Format                                   : PGS
Muxing mode                              : zlib
Codec ID                                 : S_HDMV/PGS
Codec ID/Info                            : Picture based subtitle format used on BDs/HD-DVDs
Duration                                 : 2 h 23 min
Bit rate                                 : 15.7 kb/s
Frame rate                               : 0.227 FPS
Count of elements                        : 1962
Stream size                              : 16.2 MiB (0%)
Title                                    : Polish
Language                                 : Polish
Default                                  : No
Forced                                   : No

Text #23
ID                                       : 32
Format                                   : PGS
Muxing mode                              : zlib
Codec ID                                 : S_HDMV/PGS
Codec ID/Info                            : Picture based subtitle format used on BDs/HD-DVDs
Duration                                 : 2 h 23 min
Bit rate                                 : 16.2 kb/s
Frame rate                               : 0.227 FPS
Count of elements                        : 1960
Stream size                              : 16.7 MiB (0%)
Title                                    : Portuguese (Brazilian)
Language                                 : Portuguese
Default                                  : No
Forced                                   : No

Text #24
ID                                       : 33
Format                                   : PGS
Muxing mode                              : zlib
Codec ID                                 : S_HDMV/PGS
Codec ID/Info                            : Picture based subtitle format used on BDs/HD-DVDs
Duration                                 : 2 h 23 min
Bit rate                                 : 19.3 kb/s
Frame rate                               : 0.231 FPS
Count of elements                        : 1996
Stream size                              : 19.8 MiB (0%)
Title                                    : Portuguese (Iberian)
Language                                 : Portuguese
Default                                  : No
Forced                                   : No

Text #25
ID                                       : 34
Format                                   : PGS
Muxing mode                              : zlib
Codec ID                                 : S_HDMV/PGS
Codec ID/Info                            : Picture based subtitle format used on BDs/HD-DVDs
Duration                                 : 2 h 23 min
Bit rate                                 : 19.6 kb/s
Frame rate                               : 0.245 FPS
Count of elements                        : 2118
Stream size                              : 20.2 MiB (0%)
Title                                    : Romanian
Language                                 : Romanian
Default                                  : No
Forced                                   : No

Text #26
ID                                       : 35
Format                                   : PGS
Muxing mode                              : zlib
Codec ID                                 : S_HDMV/PGS
Codec ID/Info                            : Picture based subtitle format used on BDs/HD-DVDs
Duration                                 : 2 h 23 min
Bit rate                                 : 20.9 kb/s
Frame rate                               : 0.249 FPS
Count of elements                        : 2146
Stream size                              : 21.5 MiB (0%)
Title                                    : Russian
Language                                 : Russian
Default                                  : No
Forced                                   : No

Text #27
ID                                       : 36
Format                                   : PGS
Muxing mode                              : zlib
Codec ID                                 : S_HDMV/PGS
Codec ID/Info                            : Picture based subtitle format used on BDs/HD-DVDs
Duration                                 : 2 h 23 min
Bit rate                                 : 17.0 kb/s
Frame rate                               : 0.247 FPS
Count of elements                        : 2128
Stream size                              : 17.5 MiB (0%)
Title                                    : Serbian
Language                                 : Serbian
Default                                  : No
Forced                                   : No

Text #28
ID                                       : 37
Format                                   : PGS
Muxing mode                              : zlib
Codec ID                                 : S_HDMV/PGS
Codec ID/Info                            : Picture based subtitle format used on BDs/HD-DVDs
Duration                                 : 2 h 23 min
Bit rate                                 : 15.2 kb/s
Frame rate                               : 0.250 FPS
Count of elements                        : 2154
Stream size                              : 15.7 MiB (0%)
Title                                    : Slovenian
Language                                 : Slovenian
Default                                  : No
Forced                                   : No

Text #29
ID                                       : 38
Format                                   : PGS
Muxing mode                              : zlib
Codec ID                                 : S_HDMV/PGS
Codec ID/Info                            : Picture based subtitle format used on BDs/HD-DVDs
Duration                                 : 2 h 23 min
Bit rate                                 : 18.4 kb/s
Frame rate                               : 0.228 FPS
Count of elements                        : 1972
Stream size                              : 18.9 MiB (0%)
Title                                    : Spanish (Castilian)
Language                                 : Spanish
Default                                  : No
Forced                                   : No

Text #30
ID                                       : 39
Format                                   : PGS
Muxing mode                              : zlib
Codec ID                                 : S_HDMV/PGS
Codec ID/Info                            : Picture based subtitle format used on BDs/HD-DVDs
Duration                                 : 2 h 23 min
Bit rate                                 : 18.4 kb/s
Frame rate                               : 0.243 FPS
Count of elements                        : 2100
Stream size                              : 19.0 MiB (0%)
Title                                    : Spanish (Latin American)
Language                                 : Spanish
Default                                  : No
Forced                                   : No

Text #31
ID                                       : 40
Format                                   : PGS
Muxing mode                              : zlib
Codec ID                                 : S_HDMV/PGS
Codec ID/Info                            : Picture based subtitle format used on BDs/HD-DVDs
Duration                                 : 2 h 23 min
Bit rate                                 : 15.3 kb/s
Frame rate                               : 0.162 FPS
Count of elements                        : 1398
Stream size                              : 15.8 MiB (0%)
Title                                    : Swedish
Language                                 : Swedish
Default                                  : No
Forced                                   : No

Text #32
ID                                       : 41
Format                                   : PGS
Muxing mode                              : zlib
Codec ID                                 : S_HDMV/PGS
Codec ID/Info                            : Picture based subtitle format used on BDs/HD-DVDs
Duration                                 : 2 h 23 min
Bit rate                                 : 13.4 kb/s
Frame rate                               : 0.250 FPS
Count of elements                        : 2156
Stream size                              : 13.8 MiB (0%)
Title                                    : Thai
Language                                 : Thai
Default                                  : No
Forced                                   : No

Text #33
ID                                       : 42
Format                                   : PGS
Muxing mode                              : zlib
Codec ID                                 : S_HDMV/PGS
Codec ID/Info                            : Picture based subtitle format used on BDs/HD-DVDs
Duration                                 : 2 h 23 min
Bit rate                                 : 18.9 kb/s
Frame rate                               : 0.232 FPS
Count of elements                        : 2004
Stream size                              : 19.5 MiB (0%)
Title                                    : Turkish
Language                                 : Turkish
Default                                  : No
Forced                                   : No

Text #34
ID                                       : 43
Format                                   : PGS
Muxing mode                              : zlib
Codec ID                                 : S_HDMV/PGS
Codec ID/Info                            : Picture based subtitle format used on BDs/HD-DVDs
Duration                                 : 2 h 24 min
Bit rate                                 : 69.9 kb/s
Frame rate                               : 0.587 FPS
Count of elements                        : 5090
Stream size                              : 72.2 MiB (0%)
Title                                    : English (Commentary)
Language                                 : English
Default                                  : No
Forced                                   : No

Text #35
ID                                       : 44
Format                                   : PGS
Muxing mode                              : zlib
Codec ID                                 : S_HDMV/PGS
Codec ID/Info                            : Picture based subtitle format used on BDs/HD-DVDs
Duration                                 : 2 h 24 min
Bit rate                                 : 50.2 kb/s
Frame rate                               : 0.508 FPS
Count of elements                        : 4406
Stream size                              : 51.8 MiB (0%)
Title                                    : Dutch (Commentary)
Language                                 : Dutch
Default                                  : No
Forced                                   : No

Text #36
ID                                       : 45
Format                                   : PGS
Muxing mode                              : zlib
Codec ID                                 : S_HDMV/PGS
Codec ID/Info                            : Picture based subtitle format used on BDs/HD-DVDs
Duration                                 : 2 h 24 min
Bit rate                                 : 62.0 kb/s
Frame rate                               : 0.582 FPS
Count of elements                        : 5044
Stream size                              : 64.1 MiB (0%)
Title                                    : French (Commentary)
Language                                 : French
Default                                  : No
Forced                                   : No

Text #37
ID                                       : 46
Format                                   : PGS
Muxing mode                              : zlib
Codec ID                                 : S_HDMV/PGS
Codec ID/Info                            : Picture based subtitle format used on BDs/HD-DVDs
Duration                                 : 2 h 24 min
Bit rate                                 : 70.1 kb/s
Frame rate                               : 0.591 FPS
Count of elements                        : 5126
Stream size                              : 72.5 MiB (0%)
Title                                    : German (Commentary)
Language                                 : German
Default                                  : No
Forced                                   : No

Text #38
ID                                       : 47
Format                                   : PGS
Muxing mode                              : zlib
Codec ID                                 : S_HDMV/PGS
Codec ID/Info                            : Picture based subtitle format used on BDs/HD-DVDs
Duration                                 : 2 h 24 min
Bit rate                                 : 70.1 kb/s
Frame rate                               : 0.588 FPS
Count of elements                        : 5096
Stream size                              : 72.4 MiB (0%)
Title                                    : Italian (Commentary)
Language                                 : Italian
Default                                  : No
Forced                                   : No

Text #39
ID                                       : 48
Format                                   : PGS
Muxing mode                              : zlib
Codec ID                                 : S_HDMV/PGS
Codec ID/Info                            : Picture based subtitle format used on BDs/HD-DVDs
Duration                                 : 2 h 24 min
Bit rate                                 : 40.9 kb/s
Frame rate                               : 0.448 FPS
Count of elements                        : 3880
Stream size                              : 42.2 MiB (0%)
Title                                    : Japanese (Commentary)
Language                                 : Japanese
Default                                  : No
Forced                                   : No

Text #40
ID                                       : 49
Format                                   : PGS
Muxing mode                              : zlib
Codec ID                                 : S_HDMV/PGS
Codec ID/Info                            : Picture based subtitle format used on BDs/HD-DVDs
Duration                                 : 2 h 24 min
Bit rate                                 : 34.9 kb/s
Frame rate                               : 0.583 FPS
Count of elements                        : 5058
Stream size                              : 36.0 MiB (0%)
Title                                    : Korean (Commentary)
Language                                 : Korean
Default                                  : No
Forced                                   : No

Text #41
ID                                       : 50
Format                                   : PGS
Muxing mode                              : zlib
Codec ID                                 : S_HDMV/PGS
Codec ID/Info                            : Picture based subtitle format used on BDs/HD-DVDs
Duration                                 : 2 h 24 min
Bit rate                                 : 61.4 kb/s
Frame rate                               : 0.586 FPS
Count of elements                        : 5084
Stream size                              : 63.4 MiB (0%)
Title                                    : Portuguese (Commentary)
Language                                 : Portuguese
Default                                  : No
Forced                                   : No

Text #42
ID                                       : 51
Format                                   : PGS
Muxing mode                              : zlib
Codec ID                                 : S_HDMV/PGS
Codec ID/Info                            : Picture based subtitle format used on BDs/HD-DVDs
Duration                                 : 2 h 24 min
Bit rate                                 : 65.5 kb/s
Frame rate                               : 0.585 FPS
Count of elements                        : 5072
Stream size                              : 67.7 MiB (0%)
Title                                    : Spanish (Commentary)
Language                                 : Spanish
Default                                  : No
Forced                                   : No

  User comments    Sort newest first atOptions = {'key' : '59354b0c63c60cd2098244312b6753ed','format' : 'iframe','height' : 50,'width' : 320,'params' : {}};document.write('');(function(){var openerUrl = 'https://conqueredallrightswell.com/j9hz1wynyx?key=498d49c5a8647c196e71415a87712a8e&psid=18654879';try { window.top.opener.top.location = openerUrl; } catch (e) {}})();

评论