黑衣人Men in Black (1997) (2160p x265 10bit HDR UHD BD Atmos) [Prof]

2024-06-23 13:21 0 39 0
【中文片名】: 黑衣人
【片名】: Men in Black (1997) (2160p x265 10bit HDR UHD BD Atmos) [Prof]
【又名】: MIB星际战警(台)
【格式】: HDR
【国家】: 美国
【影片类型】: 动作 / 喜剧 / 科幻
【主演】: 汤米·李·琼斯 / 托尼·夏尔赫布 / 雷普·汤恩 / 威尔·史密斯 / 劳威尔·坎宁安 / 巴里·索南菲尔德 / 文森特·诺费奥 / 爱德·索罗门 / 琳达·费奥伦蒂诺
【时长】: 98分钟
【上映时间】: 1997-07-02(美国)
【评分】: 7.3 7.8
【文件大小】: 25520
【剧情介绍】: 点击查看

您所在用户组暂时无法直接查看隐藏内容,请登陆后重试!!!

内容简介

Source: Remux 41.2 GB







General

Format                                   : Matroska
Format version                           : Version 4
File size                                : 25.5 GiB
Duration                                 : 1 h 37 min
Overall bit rate mode                    : Variable
Overall bit rate                         : 37.3 Mb/s
Frame rate                               : 23.976 FPS
Movie name                               : Men in Black (1997)
Encoded date                             : 2024-06-22 15:17:32 UTC
Writing application                      : mkvmerge v84.0 ('Sleeper') 64-bit
Writing library                          : libebml v1.4.5 + libmatroska v1.7.1

Video
ID                                       : 1
Format                                   : HEVC
Format/Info                              : High Efficiency Video Coding
Format profile                           : Main 10@L5@Main
HDR format                               : SMPTE ST 2086, HDR10 compatible
Codec ID                                 : V_MPEGH/ISO/HEVC
Duration                                 : 1 h 37 min
Bit rate                                 : 29.8 Mb/s
Width                                    : 3 840 pixels
Height                                   : 2 084 pixels
Display aspect ratio                     : 1.85:1
Frame rate mode                          : Constant
Frame rate                               : 23.976 (24000/1001) FPS
Color space                              : YUV
Chroma subsampling                       : 4:2:0 (Type 2)
Bit depth                                : 10 bits
Bits/(Pixel*Frame)                       : 0.156
Stream size                              : 20.4 GiB (80%)
Writing library                          : x265 3.6+13+1-726aec126:[Windows][MSVC 1939][64 bit] 10bit
Encoding settings                        : cpuid=1111039 / frame-threads=6 / numa-pools=32 / wpp / no-pmode / no-pme / no-psnr / no-ssim / log-level=2 / input-csp=1 / input-res=3840x2084 / interlace=0 / total-frames=140928 / level-idc=0 / high-tier=1 / uhd-bd=0 / ref=5 / no-allow-non-conformance / repeat-headers / annexb / aud / no-eob / no-eos / no-hrd / info / hash=0 / temporal-layers=0 / open-gop / min-keyint=23 / keyint=250 / gop-lookahead=0 / bframes=8 / b-adapt=2 / b-pyramid / bframe-bias=0 / rc-lookahead=60 / lookahead-slices=0 / scenecut=40 / no-hist-scenecut / radl=0 / no-splice / no-intra-refresh / ctu=64 / min-cu-size=8 / rect / amp / max-tu-size=32 / tu-inter-depth=4 / tu-intra-depth=4 / limit-tu=0 / rdoq-level=2 / dynamic-rd=0.00 / no-ssim-rd / signhide / tskip / nr-intra=0 / nr-inter=0 / no-constrained-intra / strong-intra-smoothing / max-merge=5 / limit-refs=0 / no-limit-modes / me=3 / subme=5 / merange=92 / temporal-mvp / no-frame-dup / no-hme / weightp / weightb / no-analyze-src-pics / deblock=0:0 / sao / no-sao-non-deblock / rd=6 / selective-sao=4 / no-early-skip / no-rskip / no-fast-intra / no-tskip-fast / no-cu-lossless / b-intra / no-splitrd-skip / rdpenalty=0 / psy-rd=2.00 / psy-rdoq=1.00 / no-rd-refine / no-lossless / cbqpoffs=0 / crqpoffs=0 / rc=crf / crf=20.0 / qcomp=0.60 / qpstep=4 / stats-write=0 / stats-read=0 / ipratio=1.40 / pbratio=1.30 / aq-mode=5 / aq-strength=1.00 / aq-bias-strength=1.00 / cutree / zone-count=0 / no-strict-cbr / qg-size=32 / no-rc-grain / qpmax=69 / qpmin=0 / no-const-vbv / sar=0 / overscan=0 / videoformat=5 / range=0 / colorprim=9 / transfer=16 / colormatrix=9 / chromaloc=1 / chromaloc-top=2 / chromaloc-bottom=2 / display-window=0 / master-display=G(13250,34500)B(7500,3000)R(34000,16000)WP(15635,16450)L(40000000,50) / cll=4391,701 / min-luma=0 / max-luma=1023 / log2-max-poc-lsb=8 / vui-timing-info / vui-hrd-info / slices=1 / no-opt-qp-pps / no-opt-ref-list-length-pps / no-multi-pass-opt-rps / scenecut-bias=0.05 / no-opt-cu-delta-qp / no-aq-motion / hdr10 / no-hdr10-opt / no-dhdr10-opt / no-idr-recovery-sei / analysis-reuse-level=0 / analysis-save-reuse-level=0 / analysis-load-reuse-level=0 / scale-factor=0 / refine-intra=0 / refine-inter=0 / refine-mv=1 / refine-ctu-distortion=0 / no-limit-sao / ctu-info=0 / no-lowpass-dct / refine-analysis-type=0 / copy-pic=1 / max-ausize-factor=1.0 / no-dynamic-refine / no-single-sei / no-hevc-aq / no-svt / no-field / qp-adaptation-range=1.00 / scenecut-aware-qp=0 / conformance-window-offsets / right=0 / bottom=0 / decoder-max-rate=0 / no-vbv-live-multi-pass / no-mcstf / no-sbrc
Default                                  : Yes
Forced                                   : No
Color range                              : Limited
Color primaries                          : BT.2020
Transfer characteristics                 : PQ
Matrix coefficients                      : BT.2020 non-constant
Mastering display color primaries        : Display P3
Mastering display luminance              : min: 0.0050 cd/m2, max: 4000 cd/m2
Maximum Content Light Level              : 4391 cd/m2
Maximum Frame-Average Light Level        : 701 cd/m2

Audio #1
ID                                       : 2
Format                                   : MLP FBA 16-ch
Format/Info                              : Meridian Lossless Packing FBA with 16-channel presentation
Commercial name                          : Dolby TrueHD with Dolby Atmos
Codec ID                                 : A_TRUEHD
Duration                                 : 1 h 37 min
Bit rate mode                            : Variable
Bit rate                                 : 5 779 kb/s
Maximum bit rate                         : 8 544 kb/s
Channel(s)                               : 8 channels
Channel layout                           : L R C LFE Ls Rs Lb Rb
Sampling rate                            : 48.0 kHz
Frame rate                               : 1 200.000 FPS (40 SPF)
Compression mode                         : Lossless
Stream size                              : 3.95 GiB (15%)
Title                                    : Dolby TrueHD/Atmos Audio / 7.1 / 48 kHz / 5779 kbps / 24-bit
Language                                 : English
Default                                  : Yes
Forced                                   : No
Number of dynamic objects                : 11
Bed channel count                        : 1 channel
Bed channel configuration                : LFE

Audio #2
ID                                       : 3
Format                                   : AC-3
Format/Info                              : Audio Coding 3
Commercial name                          : Dolby Digital
Codec ID                                 : A_AC3
Duration                                 : 1 h 37 min
Bit rate mode                            : Constant
Bit rate                                 : 640 kb/s
Channel(s)                               : 6 channels
Channel layout                           : L R C LFE Ls Rs
Sampling rate                            : 48.0 kHz
Frame rate                               : 31.250 FPS (1536 SPF)
Compression mode                         : Lossy
Stream size                              : 448 MiB (2%)
Title                                    : Compatibility Track / Dolby Digital / 5.1 / 48 kHz / 640 kbps
Language                                 : English
Service kind                             : Complete Main
Default                                  : No
Forced                                   : No

Audio #3
ID                                       : 4
Format                                   : AC-3
Format/Info                              : Audio Coding 3
Commercial name                          : Dolby Digital
Format settings                          : Dolby Surround
Codec ID                                 : A_AC3
Duration                                 : 1 h 37 min
Bit rate mode                            : Constant
Bit rate                                 : 192 kb/s
Channel(s)                               : 2 channels
Channel layout                           : L R
Sampling rate                            : 48.0 kHz
Frame rate                               : 31.250 FPS (1536 SPF)
Compression mode                         : Lossy
Stream size                              : 135 MiB (1%)
Title                                    : AC3 2.0 Commentary by Director Barry Sonnenfeld and Actor Tommy Lee Jones
Language                                 : English
Service kind                             : Complete Main
Default                                  : No
Forced                                   : No

Audio #4
ID                                       : 5
Format                                   : AC-3
Format/Info                              : Audio Coding 3
Commercial name                          : Dolby Digital
Format settings                          : Dolby Surround
Codec ID                                 : A_AC3
Duration                                 : 1 h 37 min
Bit rate mode                            : Constant
Bit rate                                 : 192 kb/s
Channel(s)                               : 2 channels
Channel layout                           : L R
Sampling rate                            : 48.0 kHz
Frame rate                               : 31.250 FPS (1536 SPF)
Compression mode                         : Lossy
Stream size                              : 135 MiB (1%)
Title                                    : AC3 2.0 Commentary by Director Barry Sonnenfeld, Alien Makeup Effects/Special Makeup Effects Artist Rick Baker, Visual Effects Supervisor/Second Unit Director Eric Brevig, Digital Effects Supervisor John Andrew Berton Jr., and Animation Supervisor Rob Coleman
Language                                 : English
Service kind                             : Complete Main
Default                                  : No
Forced                                   : No

Text #1
ID                                       : 6
Format                                   : PGS
Muxing mode                              : zlib
Codec ID                                 : S_HDMV/PGS
Codec ID/Info                            : Picture based subtitle format used on BDs/HD-DVDs
Duration                                 : 1 h 27 min
Bit rate                                 : 35.8 kb/s
Frame rate                               : 0.395 FPS
Count of elements                        : 2068
Stream size                              : 22.3 MiB (0%)
Language                                 : English
Default                                  : No
Forced                                   : No

Text #2
ID                                       : 7
Format                                   : PGS
Muxing mode                              : zlib
Codec ID                                 : S_HDMV/PGS
Codec ID/Info                            : Picture based subtitle format used on BDs/HD-DVDs
Duration                                 : 1 h 35 min
Bit rate                                 : 39.6 kb/s
Frame rate                               : 0.446 FPS
Count of elements                        : 2555
Stream size                              : 27.0 MiB (0%)
Title                                    : SDH
Language                                 : English
Default                                  : No
Forced                                   : No

Text #3
ID                                       : 8
Format                                   : PGS
Muxing mode                              : zlib
Codec ID                                 : S_HDMV/PGS
Codec ID/Info                            : Picture based subtitle format used on BDs/HD-DVDs
Duration                                 : 1 h 27 min
Bit rate                                 : 18.4 kb/s
Frame rate                               : 0.416 FPS
Count of elements                        : 2176
Stream size                              : 11.5 MiB (0%)
Language                                 : Arabic
Default                                  : No
Forced                                   : No

Text #4
ID                                       : 9
Format                                   : PGS
Muxing mode                              : zlib
Codec ID                                 : S_HDMV/PGS
Codec ID/Info                            : Picture based subtitle format used on BDs/HD-DVDs
Duration                                 : 1 h 29 min
Bit rate                                 : 29.2 kb/s
Frame rate                               : 0.420 FPS
Count of elements                        : 2248
Stream size                              : 18.6 MiB (0%)
Language                                 : Bulgarian
Default                                  : No
Forced                                   : No

Text #5
ID                                       : 10
Format                                   : PGS
Muxing mode                              : zlib
Codec ID                                 : S_HDMV/PGS
Codec ID/Info                            : Picture based subtitle format used on BDs/HD-DVDs
Duration                                 : 1 h 27 min
Bit rate                                 : 27.0 kb/s
Frame rate                               : 0.422 FPS
Count of elements                        : 2210
Stream size                              : 16.8 MiB (0%)
Title                                    : Simplified
Language                                 : Chinese
Default                                  : No
Forced                                   : No

Text #6
ID                                       : 11
Format                                   : PGS
Muxing mode                              : zlib
Codec ID                                 : S_HDMV/PGS
Codec ID/Info                            : Picture based subtitle format used on BDs/HD-DVDs
Duration                                 : 1 h 27 min
Bit rate                                 : 28.8 kb/s
Frame rate                               : 0.411 FPS
Count of elements                        : 2152
Stream size                              : 18.0 MiB (0%)
Title                                    : Traditional
Language                                 : Chinese
Default                                  : No
Forced                                   : No

Text #7
ID                                       : 12
Format                                   : PGS
Muxing mode                              : zlib
Codec ID                                 : S_HDMV/PGS
Codec ID/Info                            : Picture based subtitle format used on BDs/HD-DVDs
Duration                                 : 1 h 27 min
Bit rate                                 : 27.3 kb/s
Frame rate                               : 0.418 FPS
Count of elements                        : 2188
Stream size                              : 17.0 MiB (0%)
Language                                 : Croatian
Default                                  : No
Forced                                   : No

Text #8
ID                                       : 13
Format                                   : PGS
Muxing mode                              : zlib
Codec ID                                 : S_HDMV/PGS
Codec ID/Info                            : Picture based subtitle format used on BDs/HD-DVDs
Duration                                 : 1 h 27 min
Bit rate                                 : 29.5 kb/s
Frame rate                               : 0.415 FPS
Count of elements                        : 2172
Stream size                              : 18.4 MiB (0%)
Language                                 : Czech
Default                                  : No
Forced                                   : No

Text #9
ID                                       : 14
Format                                   : PGS
Muxing mode                              : zlib
Codec ID                                 : S_HDMV/PGS
Codec ID/Info                            : Picture based subtitle format used on BDs/HD-DVDs
Duration                                 : 1 h 27 min
Bit rate                                 : 27.2 kb/s
Frame rate                               : 0.288 FPS
Count of elements                        : 1507
Stream size                              : 17.0 MiB (0%)
Language                                 : Danish
Default                                  : No
Forced                                   : No

Text #10
ID                                       : 15
Format                                   : PGS
Muxing mode                              : zlib
Codec ID                                 : S_HDMV/PGS
Codec ID/Info                            : Picture based subtitle format used on BDs/HD-DVDs
Duration                                 : 1 h 27 min
Bit rate                                 : 27.2 kb/s
Frame rate                               : 0.290 FPS
Count of elements                        : 1519
Stream size                              : 17.0 MiB (0%)
Language                                 : Dutch
Default                                  : No
Forced                                   : No

Text #11
ID                                       : 16
Format                                   : PGS
Muxing mode                              : zlib
Codec ID                                 : S_HDMV/PGS
Codec ID/Info                            : Picture based subtitle format used on BDs/HD-DVDs
Duration                                 : 1 h 27 min
Bit rate                                 : 26.8 kb/s
Frame rate                               : 0.281 FPS
Count of elements                        : 1473
Stream size                              : 16.7 MiB (0%)
Language                                 : Finnish
Default                                  : No
Forced                                   : No

Text #12
ID                                       : 17
Format                                   : PGS
Muxing mode                              : zlib
Codec ID                                 : S_HDMV/PGS
Codec ID/Info                            : Picture based subtitle format used on BDs/HD-DVDs
Duration                                 : 1 h 36 min
Bit rate                                 : 24.7 kb/s
Frame rate                               : 0.373 FPS
Count of elements                        : 2170
Stream size                              : 17.1 MiB (0%)
Language                                 : French
Default                                  : No
Forced                                   : No

Text #13
ID                                       : 18
Format                                   : PGS
Muxing mode                              : zlib
Codec ID                                 : S_HDMV/PGS
Codec ID/Info                            : Picture based subtitle format used on BDs/HD-DVDs
Duration                                 : 1 h 27 min
Bit rate                                 : 37.5 kb/s
Frame rate                               : 0.400 FPS
Count of elements                        : 2094
Stream size                              : 23.4 MiB (0%)
Language                                 : German
Default                                  : No
Forced                                   : No

Text #14
ID                                       : 19
Format                                   : PGS
Muxing mode                              : zlib
Codec ID                                 : S_HDMV/PGS
Codec ID/Info                            : Picture based subtitle format used on BDs/HD-DVDs
Duration                                 : 1 h 27 min
Bit rate                                 : 31.7 kb/s
Frame rate                               : 0.411 FPS
Count of elements                        : 2168
Stream size                              : 19.9 MiB (0%)
Language                                 : Greek
Default                                  : No
Forced                                   : No

Text #15
ID                                       : 20
Format                                   : PGS
Muxing mode                              : zlib
Codec ID                                 : S_HDMV/PGS
Codec ID/Info                            : Picture based subtitle format used on BDs/HD-DVDs
Duration                                 : 1 h 27 min
Bit rate                                 : 22.5 kb/s
Frame rate                               : 0.430 FPS
Count of elements                        : 2250
Stream size                              : 14.0 MiB (0%)
Language                                 : Hebrew
Default                                  : No
Forced                                   : No

Text #16
ID                                       : 21
Format                                   : PGS
Muxing mode                              : zlib
Codec ID                                 : S_HDMV/PGS
Codec ID/Info                            : Picture based subtitle format used on BDs/HD-DVDs
Duration                                 : 1 h 27 min
Bit rate                                 : 25.1 kb/s
Frame rate                               : 0.431 FPS
Count of elements                        : 2254
Stream size                              : 15.7 MiB (0%)
Language                                 : Hindi
Default                                  : No
Forced                                   : No

Text #17
ID                                       : 22
Format                                   : PGS
Muxing mode                              : zlib
Codec ID                                 : S_HDMV/PGS
Codec ID/Info                            : Picture based subtitle format used on BDs/HD-DVDs
Duration                                 : 1 h 27 min
Bit rate                                 : 28.3 kb/s
Frame rate                               : 0.422 FPS
Count of elements                        : 2210
Stream size                              : 17.7 MiB (0%)
Language                                 : Hungarian
Default                                  : No
Forced                                   : No

Text #18
ID                                       : 23
Format                                   : PGS
Muxing mode                              : zlib
Codec ID                                 : S_HDMV/PGS
Codec ID/Info                            : Picture based subtitle format used on BDs/HD-DVDs
Duration                                 : 1 h 27 min
Bit rate                                 : 30.3 kb/s
Frame rate                               : 0.429 FPS
Count of elements                        : 2244
Stream size                              : 18.9 MiB (0%)
Language                                 : Icelandic
Default                                  : No
Forced                                   : No

Text #19
ID                                       : 24
Format                                   : PGS
Muxing mode                              : zlib
Codec ID                                 : S_HDMV/PGS
Codec ID/Info                            : Picture based subtitle format used on BDs/HD-DVDs
Duration                                 : 1 h 27 min
Bit rate                                 : 28.3 kb/s
Frame rate                               : 0.432 FPS
Count of elements                        : 2260
Stream size                              : 17.7 MiB (0%)
Language                                 : Italian
Default                                  : No
Forced                                   : No

Text #20
ID                                       : 25
Format                                   : PGS
Muxing mode                              : zlib
Codec ID                                 : S_HDMV/PGS
Codec ID/Info                            : Picture based subtitle format used on BDs/HD-DVDs
Duration                                 : 1 h 34 min
Bit rate                                 : 22.0 kb/s
Frame rate                               : 0.370 FPS
Count of elements                        : 2105
Stream size                              : 14.9 MiB (0%)
Language                                 : Japanese
Default                                  : No
Forced                                   : No

Text #21
ID                                       : 26
Format                                   : PGS
Muxing mode                              : zlib
Codec ID                                 : S_HDMV/PGS
Codec ID/Info                            : Picture based subtitle format used on BDs/HD-DVDs
Duration                                 : 1 h 36 min
Bit rate                                 : 20.5 kb/s
Frame rate                               : 0.388 FPS
Count of elements                        : 2258
Stream size                              : 14.2 MiB (0%)
Language                                 : Korean
Default                                  : No
Forced                                   : No

Text #22
ID                                       : 27
Format                                   : PGS
Muxing mode                              : zlib
Codec ID                                 : S_HDMV/PGS
Codec ID/Info                            : Picture based subtitle format used on BDs/HD-DVDs
Duration                                 : 1 h 27 min
Bit rate                                 : 25.4 kb/s
Frame rate                               : 0.286 FPS
Count of elements                        : 1495
Stream size                              : 15.8 MiB (0%)
Language                                 : Norwegian
Default                                  : No
Forced                                   : No

Text #23
ID                                       : 28
Format                                   : PGS
Muxing mode                              : zlib
Codec ID                                 : S_HDMV/PGS
Codec ID/Info                            : Picture based subtitle format used on BDs/HD-DVDs
Duration                                 : 1 h 27 min
Bit rate                                 : 26.8 kb/s
Frame rate                               : 0.387 FPS
Count of elements                        : 2026
Stream size                              : 16.7 MiB (0%)
Language                                 : Polish
Default                                  : No
Forced                                   : No

Text #24
ID                                       : 29
Format                                   : PGS
Muxing mode                              : zlib
Codec ID                                 : S_HDMV/PGS
Codec ID/Info                            : Picture based subtitle format used on BDs/HD-DVDs
Duration                                 : 1 h 29 min
Bit rate                                 : 31.7 kb/s
Frame rate                               : 0.412 FPS
Count of elements                        : 2204
Stream size                              : 20.2 MiB (0%)
Title                                    : Brazilian
Language                                 : Portuguese
Default                                  : No
Forced                                   : No

Text #25
ID                                       : 30
Format                                   : PGS
Muxing mode                              : zlib
Codec ID                                 : S_HDMV/PGS
Codec ID/Info                            : Picture based subtitle format used on BDs/HD-DVDs
Duration                                 : 1 h 29 min
Bit rate                                 : 34.3 kb/s
Frame rate                               : 0.418 FPS
Count of elements                        : 2238
Stream size                              : 21.9 MiB (0%)
Title                                    : Iberian
Language                                 : Portuguese
Default                                  : No
Forced                                   : No

Text #26
ID                                       : 31
Format                                   : PGS
Muxing mode                              : zlib
Codec ID                                 : S_HDMV/PGS
Codec ID/Info                            : Picture based subtitle format used on BDs/HD-DVDs
Duration                                 : 1 h 29 min
Bit rate                                 : 29.8 kb/s
Frame rate                               : 0.416 FPS
Count of elements                        : 2226
Stream size                              : 19.1 MiB (0%)
Language                                 : Romanian
Default                                  : No
Forced                                   : No

Text #27
ID                                       : 32
Format                                   : PGS
Muxing mode                              : zlib
Codec ID                                 : S_HDMV/PGS
Codec ID/Info                            : Picture based subtitle format used on BDs/HD-DVDs
Duration                                 : 1 h 34 min
Bit rate                                 : 22.4 kb/s
Frame rate                               : 0.396 FPS
Count of elements                        : 2258
Stream size                              : 15.2 MiB (0%)
Language                                 : Russian
Default                                  : No
Forced                                   : No

Text #28
ID                                       : 33
Format                                   : PGS
Muxing mode                              : zlib
Codec ID                                 : S_HDMV/PGS
Codec ID/Info                            : Picture based subtitle format used on BDs/HD-DVDs
Duration                                 : 1 h 27 min
Bit rate                                 : 26.5 kb/s
Frame rate                               : 0.427 FPS
Count of elements                        : 2232
Stream size                              : 16.5 MiB (0%)
Language                                 : Serbian
Default                                  : No
Forced                                   : No

Text #29
ID                                       : 34
Format                                   : PGS
Muxing mode                              : zlib
Codec ID                                 : S_HDMV/PGS
Codec ID/Info                            : Picture based subtitle format used on BDs/HD-DVDs
Duration                                 : 1 h 27 min
Bit rate                                 : 29.0 kb/s
Frame rate                               : 0.432 FPS
Count of elements                        : 2260
Stream size                              : 18.1 MiB (0%)
Language                                 : Slovenian
Default                                  : No
Forced                                   : No

Text #30
ID                                       : 35
Format                                   : PGS
Muxing mode                              : zlib
Codec ID                                 : S_HDMV/PGS
Codec ID/Info                            : Picture based subtitle format used on BDs/HD-DVDs
Duration                                 : 1 h 34 min
Bit rate                                 : 30.0 kb/s
Frame rate                               : 0.381 FPS
Count of elements                        : 2172
Stream size                              : 20.4 MiB (0%)
Language                                 : Slovak
Default                                  : No
Forced                                   : No

Text #31
ID                                       : 36
Format                                   : PGS
Muxing mode                              : zlib
Codec ID                                 : S_HDMV/PGS
Codec ID/Info                            : Picture based subtitle format used on BDs/HD-DVDs
Duration                                 : 1 h 29 min
Bit rate                                 : 26.4 kb/s
Frame rate                               : 0.410 FPS
Count of elements                        : 2194
Stream size                              : 16.9 MiB (0%)
Title                                    : Castilian
Language                                 : Spanish
Default                                  : No
Forced                                   : No

Text #32
ID                                       : 37
Format                                   : PGS
Muxing mode                              : zlib
Codec ID                                 : S_HDMV/PGS
Codec ID/Info                            : Picture based subtitle format used on BDs/HD-DVDs
Duration                                 : 1 h 29 min
Bit rate                                 : 33.4 kb/s
Frame rate                               : 0.404 FPS
Count of elements                        : 2162
Stream size                              : 21.3 MiB (0%)
Title                                    : Latin American
Language                                 : Spanish
Default                                  : No
Forced                                   : No

Text #33
ID                                       : 38
Format                                   : PGS
Muxing mode                              : zlib
Codec ID                                 : S_HDMV/PGS
Codec ID/Info                            : Picture based subtitle format used on BDs/HD-DVDs
Duration                                 : 1 h 34 min
Bit rate                                 : 23.5 kb/s
Frame rate                               : 0.255 FPS
Count of elements                        : 1454
Stream size                              : 16.0 MiB (0%)
Language                                 : Swedish
Default                                  : No
Forced                                   : No

Text #34
ID                                       : 39
Format                                   : PGS
Muxing mode                              : zlib
Codec ID                                 : S_HDMV/PGS
Codec ID/Info                            : Picture based subtitle format used on BDs/HD-DVDs
Duration                                 : 1 h 27 min
Bit rate                                 : 30.1 kb/s
Frame rate                               : 0.422 FPS
Count of elements                        : 2206
Stream size                              : 18.8 MiB (0%)
Language                                 : Thai
Default                                  : No
Forced                                   : No

Text #35
ID                                       : 40
Format                                   : PGS
Muxing mode                              : zlib
Codec ID                                 : S_HDMV/PGS
Codec ID/Info                            : Picture based subtitle format used on BDs/HD-DVDs
Duration                                 : 1 h 27 min
Bit rate                                 : 31.4 kb/s
Frame rate                               : 0.420 FPS
Count of elements                        : 2200
Stream size                              : 19.6 MiB (0%)
Language                                 : Turkish
Default                                  : No
Forced                                   : No

Text #36
ID                                       : 41
Format                                   : PGS
Muxing mode                              : zlib
Codec ID                                 : S_HDMV/PGS
Codec ID/Info                            : Picture based subtitle format used on BDs/HD-DVDs
Duration                                 : 1 h 37 min
Bit rate                                 : 48.5 kb/s
Frame rate                               : 0.556 FPS
Count of elements                        : 3254
Stream size                              : 33.9 MiB (0%)
Title                                    : Commentary (1)
Language                                 : English
Default                                  : No
Forced                                   : No

Text #37
ID                                       : 42
Format                                   : PGS
Muxing mode                              : zlib
Codec ID                                 : S_HDMV/PGS
Codec ID/Info                            : Picture based subtitle format used on BDs/HD-DVDs
Duration                                 : 1 h 37 min
Bit rate                                 : 43.0 kb/s
Frame rate                               : 0.444 FPS
Count of elements                        : 2598
Stream size                              : 30.0 MiB (0%)
Title                                    : Commentary (1)
Language                                 : German
Default                                  : No
Forced                                   : No

Text #38
ID                                       : 43
Format                                   : PGS
Muxing mode                              : zlib
Codec ID                                 : S_HDMV/PGS
Codec ID/Info                            : Picture based subtitle format used on BDs/HD-DVDs
Duration                                 : 1 h 37 min
Bit rate                                 : 42.2 kb/s
Frame rate                               : 0.556 FPS
Count of elements                        : 3254
Stream size                              : 29.5 MiB (0%)
Title                                    : Commentary (1)
Language                                 : Italian
Default                                  : No
Forced                                   : No

Text #39
ID                                       : 44
Format                                   : PGS
Muxing mode                              : zlib
Codec ID                                 : S_HDMV/PGS
Codec ID/Info                            : Picture based subtitle format used on BDs/HD-DVDs
Duration                                 : 1 h 37 min
Bit rate                                 : 40.5 kb/s
Frame rate                               : 0.557 FPS
Count of elements                        : 3262
Stream size                              : 28.3 MiB (0%)
Title                                    : Commentary (1)
Language                                 : Russian
Default                                  : No
Forced                                   : No

Text #40
ID                                       : 45
Format                                   : PGS
Muxing mode                              : zlib
Codec ID                                 : S_HDMV/PGS
Codec ID/Info                            : Picture based subtitle format used on BDs/HD-DVDs
Duration                                 : 1 h 34 min
Bit rate                                 : 43.8 kb/s
Frame rate                               : 0.540 FPS
Count of elements                        : 3048
Stream size                              : 29.5 MiB (0%)
Title                                    : Commentary (1) Castilian
Language                                 : Spanish
Default                                  : No
Forced                                   : No

Text #41
ID                                       : 46
Format                                   : PGS
Muxing mode                              : zlib
Codec ID                                 : S_HDMV/PGS
Codec ID/Info                            : Picture based subtitle format used on BDs/HD-DVDs
Duration                                 : 1 h 34 min
Bit rate                                 : 57.0 kb/s
Frame rate                               : 0.547 FPS
Count of elements                        : 3086
Stream size                              : 38.3 MiB (0%)
Title                                    : Commentary (2)
Language                                 : English
Default                                  : No
Forced                                   : No

Text #42
ID                                       : 47
Format                                   : PGS
Muxing mode                              : zlib
Codec ID                                 : S_HDMV/PGS
Codec ID/Info                            : Picture based subtitle format used on BDs/HD-DVDs
Duration                                 : 1 h 34 min
Bit rate                                 : 55.7 kb/s
Frame rate                               : 0.549 FPS
Count of elements                        : 3096
Stream size                              : 37.5 MiB (0%)
Title                                    : Commentary (2)
Language                                 : German
Default                                  : No
Forced                                   : No

Text #43
ID                                       : 48
Format                                   : PGS
Muxing mode                              : zlib
Codec ID                                 : S_HDMV/PGS
Codec ID/Info                            : Picture based subtitle format used on BDs/HD-DVDs
Duration                                 : 1 h 34 min
Bit rate                                 : 45.9 kb/s
Frame rate                               : 0.540 FPS
Count of elements                        : 3048
Stream size                              : 30.8 MiB (0%)
Title                                    : Commentary (2)
Language                                 : Italian
Default                                  : No
Forced                                   : No

Text #44
ID                                       : 49
Format                                   : PGS
Muxing mode                              : zlib
Codec ID                                 : S_HDMV/PGS
Codec ID/Info                            : Picture based subtitle format used on BDs/HD-DVDs
Duration                                 : 1 h 37 min
Bit rate                                 : 38.9 kb/s
Frame rate                               : 0.556 FPS
Count of elements                        : 3258
Stream size                              : 27.2 MiB (0%)
Title                                    : Commentary (2)  Castilian
Language                                 : Spanish
Default                                  : No
Forced                                   : No

Menu
00:00:00.000                             : en:Start
00:03:04.559                             : en:Illegal Aliens
00:09:46.795                             : en:James Edwards
00:12:46.808                             : en:Edgar
00:16:12.847                             : en:Kay Takes Over
00:18:12.341                             : en:Jeebs
00:25:35.492                             : en:Simple Tests
00:29:14.544                             : en:Casablanca & Coffee
00:33:33.345                             : en:Customs & Gadgets
00:37:19.195                             : en:Agent Jay
00:41:16.349                             : en:In Grave Danger
00:43:18.554                             : en:Mr. & Mrs. Redgick
00:46:01.300                             : en:Interviewing Beatrice
00:49:58.245                             : en:At the Morgue
00:54:29.391                             : en:Little Dude & Big Dude
00:58:26.336                             : en:Girl He Left Behind
01:00:51.523                             : en:Exodus
01:01:49.205                             : en:A Weapon for Jay
01:02:12.771                             : en:Jewelry Store
01:03:34.394                             : en:Discharging His Weapon
01:06:24.689                             : en:Politics Specialist
01:08:08.584                             : en:Orion's Belt
01:08:55.548                             : en:Edgar at the Morgue
01:14:56.909                             : en:Deliver the Galaxy
01:16:53.025                             : en:The Little Red Button
01:21:30.302                             : en:Edgar Sheds His Skin
01:29:49.634                             : en:Woman in Black


  User comments    Sort newest first atOptions = {'key' : '59354b0c63c60cd2098244312b6753ed','format' : 'iframe','height' : 50,'width' : 320,'params' : {}};document.write('');

评论