假想友Imaginary 2024 2160p UHD BluRay REMUX DV HDR HEVC DTS-HD MA 5.1-Kebab

2024-07-09 21:39 0 15 3
【中文片名】: 假想友
【片名】: Imaginary 2024 2160p UHD BluRay REMUX DV HDR HEVC DTS-HD MA 5.1-Kebab
【又名】: 熊出殁(港),伏栗熊(台),脑友惊魂
【格式】: 蓝光原盘
【国家】: 美国
【影片类型】: 悬疑 / 惊悚 / 恐怖
【主演】: 杰夫·瓦德洛 / 汤姆·佩恩 / 贝蒂·巴克利 / 塔根·伯恩斯 / 维罗尼卡·法尔孔 / 瓦妮塔·沃姆斯利 / 德汪达·怀斯 / 阿利克斯·安杰利斯 / 戴恩·迪利格罗 / 格雷格·埃尔布 / 杰森·奥雷姆兰 / 派珀·布劳恩 / 塞缪尔·萨勒瑞 / 马修·佐藤 / 瑞泽姆·赫德 / 肖恩·桑斯 / 小劳伦斯·韦伯 / 诺亚·马丁内斯 / 莉莉·桑谢恩 / 塞西利娅·利尔 / 爱德华多·坎皮拉诺 / 迈克尔·贝克迈尔 / 罗纳德·比尼恩 / 叙泽特·兰格 / 布鲁克林·美佐斯 / 奥布里·美佐斯 / 以赛亚·埃文斯 / 康纳·麦考伊 / 小劳伦斯·J·韦伯
【时长】: 104分钟
【上映时间】: 2024-03-08(美国)
【评分】: 0 5.5
【文件大小】: 50690
【剧情介绍】: 点击查看

您所在用户组暂时无法直接查看隐藏内容,请登陆后重试!!!

内容简介

General
Unique ID                                : 63015709876496860056274084792582522637 (0x2F68625EFB288C731164BBCA3B97C70D)
Complete name                            : Imaginary.2024.2160p.UHD.Blu-ray.REMUX.DV.HDR.HEVC.DTS-HD.MA.5.1-Kebab.mkv
Format                                   : Matroska
Format version                           : Version 4
File size                                : 50.7 GiB
Duration                                 : 1 h 44 min
Overall bit rate mode                    : Variable
Overall bit rate                         : 69.5 Mb/s
Frame rate                               : 24.000 FPS
Movie name                               : IMAGINARY
Encoded date                             : 2024-07-06 20:57:57 UTC
Writing application                      : mkvmerge v83.0 ('Circle Of Friends') 64-bit
Writing library                          : libebml v1.4.5 + libmatroska v1.7.1

Video
ID                                       : 1
ID in the original source medium         : 4113 (0x1011)
Format                                   : HEVC
Format/Info                              : High Efficiency Video Coding
Format profile                           : Main 10@L5.1@High
HDR format                               : Dolby Vision, Version 1.0, dvhe.07.06, BL+EL+RPU, Blu-ray compatible / SMPTE ST 2086, HDR10 compatible
Codec ID                                 : V_MPEGH/ISO/HEVC
Duration                                 : 1 h 44 min
Bit rate                                 : 65.6 Mb/s
Width                                    : 3 840 pixels
Height                                   : 2 160 pixels
Display aspect ratio                     : 16:9
Frame rate mode                          : Constant
Frame rate                               : 24.000 FPS
Color space                              : YUV
Chroma subsampling                       : 4:2:0 (Type 2)
Bit depth                                : 10 bits
Bits/(Pixel*Frame)                       : 0.329
Stream size                              : 47.8 GiB (94%)
Title                                    : MPEG-H HEVC Video / 54411 kbps  / 2160p / 24 fps / 16:9 / Main 10 @ Level 5.1 @ High / 10 bits / HDR10 / BT.2020 / Dolby Vision FEL @ 11325 kbps kbps
Language                                 : English
Default                                  : Yes
Forced                                   : No
Color range                              : Limited
Color primaries                          : BT.2020
Transfer characteristics                 : PQ
Matrix coefficients                      : BT.2020 non-constant
Mastering display color primaries        : Display P3
Mastering display luminance              : min: 0.0001 cd/m2, max: 1000 cd/m2
Maximum Content Light Level              : 702 cd/m2
Maximum Frame-Average Light Level        : 220 cd/m2
Original source medium                   : Blu-ray

Audio
ID                                       : 2
ID in the original source medium         : 4353 (0x1101)
Format                                   : DTS XLL
Format/Info                              : Digital Theater Systems
Commercial name                          : DTS-HD Master Audio
Codec ID                                 : A_DTS
Duration                                 : 1 h 44 min
Bit rate mode                            : Variable
Bit rate                                 : 3 891 kb/s
Channel(s)                               : 6 channels
Channel layout                           : C L R Ls Rs LFE
Sampling rate                            : 48.0 kHz
Frame rate                               : 93.750 FPS (512 SPF)
Bit depth                                : 24 bits
Compression mode                         : Lossless
Stream size                              : 2.84 GiB (6%)
Title                                    : Surround Upmix / DTS-HD Master Audio / 5.1 / 48 kHz /  3898 kbps / 24-bit
Language                                 : English
Default                                  : Yes
Forced                                   : No
Original source medium                   : Blu-ray

Text #1
ID                                       : 3
Format                                   : UTF-8
Codec ID                                 : S_TEXT/UTF8
Codec ID/Info                            : UTF-8 Plain Text
Duration                                 : 1 h 42 min
Bit rate                                 : 45 b/s
Frame rate                               : 0.219 FPS
Count of elements                        : 1344
Stream size                              : 34.3 KiB (0%)
Language                                 : English
Default                                  : No
Forced                                   : No

Text #2
ID                                       : 4
Format                                   : UTF-8
Codec ID                                 : S_TEXT/UTF8
Codec ID/Info                            : UTF-8 Plain Text
Duration                                 : 1 h 43 min
Bit rate                                 : 61 b/s
Frame rate                               : 0.287 FPS
Count of elements                        : 1778
Stream size                              : 46.9 KiB (0%)
Title                                    : SDH
Language                                 : English
Default                                  : No
Forced                                   : No

Text #3
ID                                       : 5
ID in the original source medium         : 4768 (0x12A0)
Format                                   : PGS
Codec ID                                 : S_HDMV/PGS
Codec ID/Info                            : Picture based subtitle format used on BDs/HD-DVDs
Duration                                 : 1 h 38 min
Bit rate                                 : 24.7 kb/s
Frame rate                               : 0.340 FPS
Count of elements                        : 2004
Stream size                              : 17.4 MiB (0%)
Language                                 : Italian
Default                                  : No
Forced                                   : No
Original source medium                   : Blu-ray

Text #4
ID                                       : 6
Format                                   : UTF-8
Codec ID                                 : S_TEXT/UTF8
Codec ID/Info                            : UTF-8 Plain Text
Duration                                 : 1 h 42 min
Bit rate                                 : 50 b/s
Frame rate                               : 0.216 FPS
Count of elements                        : 1328
Stream size                              : 37.8 KiB (0%)
Language                                 : Spanish (ES)
Default                                  : No
Forced                                   : No

Text #5
ID                                       : 7
Format                                   : UTF-8
Codec ID                                 : S_TEXT/UTF8
Codec ID/Info                            : UTF-8 Plain Text
Duration                                 : 1 h 42 min
Bit rate                                 : 48 b/s
Frame rate                               : 0.200 FPS
Count of elements                        : 1229
Stream size                              : 36.0 KiB (0%)
Language                                 : French
Default                                  : No
Forced                                   : No

Menu
00:00:00.000                             : en:Chapter 01
00:05:59.000                             : en:Chapter 02
00:16:29.958                             : en:Chapter 03
00:24:47.250                             : en:Chapter 04
00:33:26.666                             : en:Chapter 05
00:41:43.625                             : en:Chapter 06
00:53:09.750                             : en:Chapter 07
00:58:12.458                             : en:Chapter 08
01:07:16.958                             : en:Chapter 09
01:16:19.708                             : en:Chapter 10
01:24:11.708                             : en:Chapter 11
01:32:13.291                             : en:Chapter 12

ReportBy                                 : MediaInfoLib - v23.10



  User comments    Sort newest first atOptions = {'key' : '59354b0c63c60cd2098244312b6753ed','format' : 'iframe','height' : 50,'width' : 320,'params' : {}};document.write('');

评论