绝地战警:疾速追击Bad.Boys.for.Life.(2020).BluRay.2160p.UHD.10Bit.HDR.DTS-HD.MA.7.1.x265-Z@X

2024-07-10 06:03 0 30 1
【中文片名】: 绝地战警:疾速追击
【片名】: Bad.Boys.for.Life.(2020).BluRay.2160p.UHD.10Bit.HDR.DTS-HD.MA.7.1.x265-Z@X
【又名】: 绝地战警3,重案梦幻再重组(港),绝地战警FOR LIFE(台),Bad Boys 3
【格式】: HDR
【国家】: 美国
【影片类型】: 喜剧 / 动作 / 犯罪
【主演】: 威尔·史密斯 / 大卫·古根海姆 / 马丁·劳伦斯 / 乔·潘托里亚诺 / 亚历山大·路德韦格 / 乔·卡纳汉 / 凯特·德尔·卡斯蒂洛 / 乔治·加洛 / 安东尼·塔姆巴基斯 / 安东尼·莫利纳利 / 伊沃·南迪 / 卡洛斯·格雷罗 / 查尔斯·梅尔顿 / 海皮·安德森 / 凡妮莎·哈金斯 / 约翰·盖蒂尔 / 玛丽亚·Z·威尔逊 / 大卫·莫拉蒂 / 葆拉·努涅斯 / 汉斯·马雷罗 / 莎伦·菲弗 / 塞尔吉奥·布里奥内斯 / 詹妮弗·巴杰 / 詹姆斯·威廉·巴拉德 / 克里斯·布雷姆纳 / 阿迪尔·埃尔·阿比 / 比拉勒·法拉赫 / DJ卡拉德 / 马西·弗伦 / 艾米丽·托尔斯 / 特洛伊·布伦纳 / 巴迪·沃特金斯 / 大卫·L·马斯顿 / 德里克‧吉尔伯特 / 切克·伯恩哈特 / 雅各布·西皮奥
【时长】: 124分钟
【上映时间】: 2020(中国大陆) / 2020-01-17(美国)
【评分】: 6.6 6.2
【文件大小】: 31110
【剧情介绍】: 点击查看

您所在用户组暂时无法直接查看隐藏内容,请登陆后重试!!!

内容简介

Bad.Boys.for.Life.(2020).BluRay.2160p.UHD.10Bit.HDR.DTS-HD.MA.7.1.x265-Z@X

IMDB - https://www.imdb.com/title/tt1502397/

-----------------------------------------------------------------------------------
GENERAL INFO

Genre: Action | Comedy | Crime | Thriller

Director : Moritz Mohr

Stars: Will Smith, Alexander Ludwig, Vanessa Hudgens, Martin Lawrence, Joe Pantoliano, Paola Nuñez, Charles Melton, Kate del Castillo

Plot: The Bad Boys Mike Lowrey and Marcus Burnett are back together for one last ride in the highly anticipated Bad Boys for Life.

-----------------------------------------------------------------------------------
RELEASE INFO

Source                  : Bad.Boys.for.Life.2020.UHD.BluRay.2160p.DTS-X.7.1.HEVC.REMUX-FraMeSToR (Thanks!)
Chapters                : 16
File Size               : 31.1 GB
Duration                : 2 h 03 min
Video                   : HEVC Main Video / 35.9 MB / 23.976 fps / Main 10 @ Level 5.1 @ Main / 10Bit / HDR10
Resolution              : 3840 x 1604
Audio                   : English / DTS-HD MA + IMAX Enhanced / 7.1 /  Dolby Digital Plus / 7.1
Subtitles               : MULTI
Encoder                 : HSaber

-----------------------------------------------------------------------------------
COVER



-----------------------------------------------------------------------------------
SCREENSHOTS










-----------------------------------------------------------------------------------
MEDIAINFO

General
Unique ID                                : 13964404286055245931344322132171716358 (0xA817249B20D4DAD7ED9AB1D3F327706)
Complete name                            : Bad.Boys.for.Life.(2020).BluRay.2160p.UHD.10Bit.HDR.DTS-HD.MA.7.1.x265-Z@X.mkv
Format                                   : Matroska
Format version                           : Version 4
File size                                : 31.1 GiB
Duration                                 : 2 h 3 min
Overall bit rate mode                    : Variable
Overall bit rate                         : 35.9 Mb/s
Frame rate                               : 23.976 FPS
Movie name                               : Bad Boys for Life (2020)
Encoded date                             : 2024-07-09 19:02:12 UTC
Writing application                      : mkvmerge v85.0 ('Shame For You') 64-bit
Writing library                          : libebml v1.4.5 + libmatroska v1.7.1
Cover                                    : Yes
Attachments                              : cover.jpg
IMDB                                     : tt1502397
TMDB                                     : movie/38700

Video
ID                                       : 1
Format                                   : HEVC
Format/Info                              : High Efficiency Video Coding
Format profile                           : Main 10@L5.1@Main
HDR format                               : SMPTE ST 2086, HDR10 compatible
Codec ID                                 : V_MPEGH/ISO/HEVC
Duration                                 : 2 h 3 min
Bit rate                                 : 28.1 Mb/s
Width                                    : 3 840 pixels
Height                                   : 1 604 pixels
Display aspect ratio                     : 2.39:1
Frame rate mode                          : Constant
Frame rate                               : 23.976 (24000/1001) FPS
Color space                              : YUV
Chroma subsampling                       : 4:2:0 (Type 2)
Bit depth                                : 10 bits
Bits/(Pixel*Frame)                       : 0.190
Stream size                              : 24.4 GiB (78%)
Title                                    : HSaber <-|-> Z@X
Writing library                          : x265 3.6+1-aa7f602f7:[Windows][GCC 13.2.0][64 bit] 10bit
Encoding settings                        : cpuid=1111039 / frame-threads=4 / numa-pools=24 / wpp / no-pmode / no-pme / no-psnr / no-ssim / log-level=2 / input-csp=1 / input-res=3840x1604 / interlace=0 / total-frames=0 / level-idc=51 / high-tier=1 / uhd-bd=0 / ref=4 / no-allow-non-conformance / repeat-headers / annexb / no-aud / no-eob / no-eos / no-hrd / info / hash=0 / temporal-layers=0 / open-gop / min-keyint=24 / keyint=240 / gop-lookahead=0 / bframes=4 / b-adapt=2 / b-pyramid / bframe-bias=0 / rc-lookahead=25 / lookahead-slices=4 / scenecut=40 / no-hist-scenecut / radl=0 / no-splice / no-intra-refresh / ctu=64 / min-cu-size=8 / no-rect / no-amp / max-tu-size=32 / tu-inter-depth=1 / tu-intra-depth=1 / limit-tu=0 / rdoq-level=1 / dynamic-rd=0.00 / no-ssim-rd / signhide / no-tskip / nr-intra=0 / nr-inter=0 / no-constrained-intra / no-strong-intra-smoothing / max-merge=3 / limit-refs=3 / limit-modes / me=3 / subme=3 / merange=57 / temporal-mvp / no-frame-dup / no-hme / weightp / no-weightb / no-analyze-src-pics / deblock=0:0 / sao / no-sao-non-deblock / rd=4 / selective-sao=4 / no-early-skip / rskip / rskip-edge-threshold=0.050000 / no-fast-intra / no-tskip-fast / no-cu-lossless / no-b-intra / no-splitrd-skip / rdpenalty=0 / psy-rd=0.75 / psy-rdoq=4.00 / no-rd-refine / no-lossless / cbqpoffs=0 / crqpoffs=0 / rc=abr / bitrate=28118 / qcomp=0.60 / qpstep=4 / stats-write=0 / stats-read=2 / cplxblur=20.0 / qblur=0.5 / ipratio=1.40 / pbratio=1.30 / aq-mode=1 / aq-strength=1.00 / cutree / zone-count=0 / no-strict-cbr / qg-size=32 / no-rc-grain / qpmax=69 / qpmin=0 / no-const-vbv / sar=1 / overscan=0 / videoformat=5 / range=0 / colorprim=9 / transfer=16 / colormatrix=9 / chromaloc=1 / chromaloc-top=2 / chromaloc-bottom=2 / display-window=0 / master-display=G(13250,34500)B(7500,3000)R(34000,16000)WP(15635,16450)L(40000000,50) / cll=4004,695 / min-luma=0 / max-luma=1023 / log2-max-poc-lsb=8 / vui-timing-info / vui-hrd-info / slices=1 / no-opt-qp-pps / no-opt-ref-list-length-pps / no-multi-pass-opt-rps / scenecut-bias=0.05 / no-opt-cu-delta-qp / no-aq-motion / hdr10 / hdr10-opt / no-dhdr10-opt / no-idr-recovery-sei / analysis-reuse-level=0 / analysis-save-reuse-level=0 / analysis-load-reuse-level=0 / scale-factor=0 / refine-intra=0 / refine-inter=0 / refine-mv=1 / refine-ctu-distortion=0 / no-limit-sao / ctu-info=0 / no-lowpass-dct / refine-analysis-type=0 / copy-pic=1 / max-ausize-factor=1.0 / no-dynamic-refine / no-single-sei / no-hevc-aq / no-svt / no-field / qp-adaptation-range=1.00 / scenecut-aware-qp=0conformance-window-offsets / right=0 / bottom=0 / decoder-max-rate=0 / no-vbv-live-multi-pass / no-mcstf / no-sbrc
Language                                 : English
Default                                  : Yes
Forced                                   : No
Color range                              : Limited
Color primaries                          : BT.2020
Transfer characteristics                 : PQ
Matrix coefficients                      : BT.2020 non-constant
Mastering display color primaries        : Display P3
Mastering display luminance              : min: 0.0050 cd/m2, max: 4000 cd/m2
Maximum Content Light Level              : 4004
MaxCLL_Original                          : 4004 cd/m2
Maximum Frame-Average Light Level        : 695
MaxFALL_Original                         : 695 cd/m2

Audio #1
ID                                       : 2
Format                                   : DTS XLL X IMAX
Format/Info                              : Digital Theater Systems
Commercial name                          : DTS-HD MA + IMAX Enhanced
Codec ID                                 : A_DTS
Duration                                 : 2 h 3 min
Bit rate mode                            : Variable
Bit rate                                 : 5 847 kb/s
Channel(s)                               : 8 channels
Channel layout                           : C L R LFE Lb Rb Lss Rss Objects
Sampling rate                            : 48.0 kHz
Frame rate                               : 93.750 FPS (512 SPF)
Bit depth                                : 24 bits
Compression mode                         : Lossless
Stream size                              : 5.06 GiB (16%)
Title                                    : DTS-HD MA IMAX 7.1
Language                                 : English
Default                                  : Yes
Forced                                   : No

Audio #2
ID                                       : 3
Format                                   : E-AC-3
Format/Info                              : Enhanced AC-3
Commercial name                          : Dolby Digital Plus
Format profile                           : Blu-ray Disc
Format settings                          : Dolby Surround EX
Codec ID                                 : A_EAC3
Duration                                 : 2 h 3 min
Bit rate mode                            : Constant
Bit rate                                 : 1 536 kb/s
Channel(s)                               : 8 channels
Channel layout                           : L R C LFE Ls Rs Lb Rb
Sampling rate                            : 48.0 kHz
Frame rate                               : 31.250 FPS (1536 SPF)
Compression mode                         : Lossy
Stream size                              : 1.33 GiB (4%)
Title                                    : Dolby Digital Plus 7.1
Language                                 : English
Service kind                             : Complete Main
Default                                  : Yes
Forced                                   : No
Dialog Normalization                     : -23 dB
compr                                    : -0.28 dB
cmixlev                                  : -3.0 dB
surmixlev                                : -3 dB
dmixmod                                  : Lo/Ro
ltrtcmixlev                              : -1.5 dB
ltrtsurmixlev                            : -1.5 dB
lorocmixlev                              : -1.5 dB
lorosurmixlev                            : -1.5 dB
dialnorm_Average                         : -23 dB
dialnorm_Minimum                         : -23 dB
dialnorm_Maximum                         : -23 dB

Text #1
ID                                       : 4
Format                                   : PGS
Muxing mode                              : zlib
Codec ID                                 : S_HDMV/PGS
Codec ID/Info                            : Picture based subtitle format used on BDs/HD-DVDs
Duration                                 : 1 h 57 min
Bit rate                                 : 23.7 kb/s
Frame rate                               : 0.507 FPS
Count of elements                        : 3560
Stream size                              : 19.8 MiB (0%)
Title                                    : Arabic
Language                                 : Arabic
Default                                  : Yes
Forced                                   : No

Text #2
ID                                       : 5
Format                                   : PGS
Muxing mode                              : zlib
Codec ID                                 : S_HDMV/PGS
Codec ID/Info                            : Picture based subtitle format used on BDs/HD-DVDs
Duration                                 : 1 h 57 min
Bit rate                                 : 36.0 kb/s
Frame rate                               : 0.381 FPS
Count of elements                        : 2674
Stream size                              : 30.2 MiB (0%)
Title                                    : Bulgarian
Language                                 : Bulgarian
Default                                  : Yes
Forced                                   : No

Text #3
ID                                       : 6
Format                                   : PGS
Muxing mode                              : zlib
Codec ID                                 : S_HDMV/PGS
Codec ID/Info                            : Picture based subtitle format used on BDs/HD-DVDs
Duration                                 : 1 h 45 min
Bit rate                                 : 1 723 b/s
Frame rate                               : 0.024 FPS
Count of elements                        : 154
Stream size                              : 1.30 MiB (0%)
Title                                    : English (Forced only)
Language                                 : English
Default                                  : Yes
Forced                                   : No

Text #4
ID                                       : 7
Format                                   : PGS
Muxing mode                              : zlib
Codec ID                                 : S_HDMV/PGS
Codec ID/Info                            : Picture based subtitle format used on BDs/HD-DVDs
Duration                                 : 1 h 57 min
Bit rate                                 : 36.8 kb/s
Frame rate                               : 0.440 FPS
Count of elements                        : 3094
Stream size                              : 30.8 MiB (0%)
Title                                    : English
Language                                 : English
Default                                  : Yes
Forced                                   : No

Text #5
ID                                       : 8
Format                                   : PGS
Muxing mode                              : zlib
Codec ID                                 : S_HDMV/PGS
Codec ID/Info                            : Picture based subtitle format used on BDs/HD-DVDs
Duration                                 : 1 h 57 min
Bit rate                                 : 44.2 kb/s
Frame rate                               : 0.532 FPS
Count of elements                        : 3753
Stream size                              : 37.2 MiB (0%)
Title                                    : English (SDH)
Language                                 : English
Default                                  : Yes
Forced                                   : No

Text #6
ID                                       : 9
Format                                   : PGS
Muxing mode                              : zlib
Codec ID                                 : S_HDMV/PGS
Codec ID/Info                            : Picture based subtitle format used on BDs/HD-DVDs
Duration                                 : 2 h 2 min
Bit rate                                 : 29.0 kb/s
Frame rate                               : 0.487 FPS
Count of elements                        : 3582
Stream size                              : 25.5 MiB (0%)
Title                                    : Chinese (Cantonese)
Language                                 : Chinese
Default                                  : Yes
Forced                                   : No

Text #7
ID                                       : 10
Format                                   : PGS
Muxing mode                              : zlib
Codec ID                                 : S_HDMV/PGS
Codec ID/Info                            : Picture based subtitle format used on BDs/HD-DVDs
Duration                                 : 2 h 2 min
Bit rate                                 : 29.0 kb/s
Frame rate                               : 0.474 FPS
Count of elements                        : 3488
Stream size                              : 25.5 MiB (0%)
Title                                    : Chinese (Mandarin Simplified)
Language                                 : Chinese
Default                                  : Yes
Forced                                   : No

Text #8
ID                                       : 11
Format                                   : PGS
Muxing mode                              : zlib
Codec ID                                 : S_HDMV/PGS
Codec ID/Info                            : Picture based subtitle format used on BDs/HD-DVDs
Duration                                 : 2 h 2 min
Bit rate                                 : 27.7 kb/s
Frame rate                               : 0.485 FPS
Count of elements                        : 3572
Stream size                              : 24.3 MiB (0%)
Title                                    : Chinese (Mandarin Traditional)
Language                                 : Chinese
Default                                  : Yes
Forced                                   : No

Text #9
ID                                       : 12
Format                                   : PGS
Muxing mode                              : zlib
Codec ID                                 : S_HDMV/PGS
Codec ID/Info                            : Picture based subtitle format used on BDs/HD-DVDs
Duration                                 : 1 h 57 min
Bit rate                                 : 36.8 kb/s
Frame rate                               : 0.344 FPS
Count of elements                        : 2418
Stream size                              : 30.8 MiB (0%)
Title                                    : Croatian
Language                                 : Croatian
Default                                  : Yes
Forced                                   : No

Text #10
ID                                       : 13
Format                                   : PGS
Muxing mode                              : zlib
Codec ID                                 : S_HDMV/PGS
Codec ID/Info                            : Picture based subtitle format used on BDs/HD-DVDs
Duration                                 : 1 h 57 min
Bit rate                                 : 35.9 kb/s
Frame rate                               : 0.444 FPS
Count of elements                        : 3122
Stream size                              : 30.1 MiB (0%)
Title                                    : Czech
Language                                 : Czech
Default                                  : Yes
Forced                                   : No

Text #11
ID                                       : 14
Format                                   : PGS
Muxing mode                              : zlib
Codec ID                                 : S_HDMV/PGS
Codec ID/Info                            : Picture based subtitle format used on BDs/HD-DVDs
Duration                                 : 1 h 57 min
Bit rate                                 : 33.3 kb/s
Frame rate                               : 0.333 FPS
Count of elements                        : 2338
Stream size                              : 27.9 MiB (0%)
Title                                    : Danish
Language                                 : Danish
Default                                  : Yes
Forced                                   : No

Text #12
ID                                       : 15
Format                                   : PGS
Muxing mode                              : zlib
Codec ID                                 : S_HDMV/PGS
Codec ID/Info                            : Picture based subtitle format used on BDs/HD-DVDs
Duration                                 : 1 h 57 min
Bit rate                                 : 32.2 kb/s
Frame rate                               : 0.353 FPS
Count of elements                        : 2480
Stream size                              : 27.0 MiB (0%)
Title                                    : Dutch
Language                                 : Dutch
Default                                  : Yes
Forced                                   : No

Text #13
ID                                       : 16
Format                                   : PGS
Muxing mode                              : zlib
Codec ID                                 : S_HDMV/PGS
Codec ID/Info                            : Picture based subtitle format used on BDs/HD-DVDs
Duration                                 : 2 h 2 min
Bit rate                                 : 29.0 kb/s
Frame rate                               : 0.418 FPS
Count of elements                        : 3076
Stream size                              : 25.4 MiB (0%)
Title                                    : French
Language                                 : French
Default                                  : Yes
Forced                                   : No

Text #14
ID                                       : 17
Format                                   : PGS
Muxing mode                              : zlib
Codec ID                                 : S_HDMV/PGS
Codec ID/Info                            : Picture based subtitle format used on BDs/HD-DVDs
Duration                                 : 1 h 57 min
Bit rate                                 : 40.1 kb/s
Frame rate                               : 0.451 FPS
Count of elements                        : 3170
Stream size                              : 33.6 MiB (0%)
Title                                    : German
Language                                 : German
Default                                  : Yes
Forced                                   : No

Text #15
ID                                       : 18
Format                                   : PGS
Muxing mode                              : zlib
Codec ID                                 : S_HDMV/PGS
Codec ID/Info                            : Picture based subtitle format used on BDs/HD-DVDs
Duration                                 : 1 h 56 min
Bit rate                                 : 41.1 kb/s
Frame rate                               : 0.401 FPS
Count of elements                        : 2810
Stream size                              : 34.3 MiB (0%)
Title                                    : Greek
Language                                 : Greek
Default                                  : Yes
Forced                                   : No

Text #16
ID                                       : 19
Format                                   : PGS
Muxing mode                              : zlib
Codec ID                                 : S_HDMV/PGS
Codec ID/Info                            : Picture based subtitle format used on BDs/HD-DVDs
Duration                                 : 1 h 57 min
Bit rate                                 : 40.4 kb/s
Frame rate                               : 0.484 FPS
Count of elements                        : 3400
Stream size                              : 33.9 MiB (0%)
Title                                    : Hungarian
Language                                 : Hungarian
Default                                  : Yes
Forced                                   : No

Text #17
ID                                       : 20
Format                                   : PGS
Muxing mode                              : zlib
Codec ID                                 : S_HDMV/PGS
Codec ID/Info                            : Picture based subtitle format used on BDs/HD-DVDs
Duration                                 : 1 h 57 min
Bit rate                                 : 36.8 kb/s
Frame rate                               : 0.481 FPS
Count of elements                        : 3378
Stream size                              : 30.9 MiB (0%)
Title                                    : Italian
Language                                 : Italian
Default                                  : Yes
Forced                                   : No

Text #18
ID                                       : 21
Format                                   : PGS
Muxing mode                              : zlib
Codec ID                                 : S_HDMV/PGS
Codec ID/Info                            : Picture based subtitle format used on BDs/HD-DVDs
Duration                                 : 2 h 2 min
Bit rate                                 : 35.9 kb/s
Frame rate                               : 0.476 FPS
Count of elements                        : 3502
Stream size                              : 31.5 MiB (0%)
Title                                    : Indonesian
Language                                 : Indonesian
Default                                  : Yes
Forced                                   : No

Text #19
ID                                       : 22
Format                                   : PGS
Muxing mode                              : zlib
Codec ID                                 : S_HDMV/PGS
Codec ID/Info                            : Picture based subtitle format used on BDs/HD-DVDs
Duration                                 : 1 h 57 min
Bit rate                                 : 24.8 kb/s
Frame rate                               : 0.434 FPS
Count of elements                        : 3052
Stream size                              : 20.8 MiB (0%)
Title                                    : Japanese
Language                                 : Japanese
Default                                  : Yes
Forced                                   : No

Text #20
ID                                       : 23
Format                                   : PGS
Muxing mode                              : zlib
Codec ID                                 : S_HDMV/PGS
Codec ID/Info                            : Picture based subtitle format used on BDs/HD-DVDs
Duration                                 : 2 h 2 min
Bit rate                                 : 26.3 kb/s
Frame rate                               : 0.482 FPS
Count of elements                        : 3550
Stream size                              : 23.1 MiB (0%)
Title                                    : Korean
Language                                 : Korean
Default                                  : Yes
Forced                                   : No

Text #21
ID                                       : 24
Format                                   : PGS
Muxing mode                              : zlib
Codec ID                                 : S_HDMV/PGS
Codec ID/Info                            : Picture based subtitle format used on BDs/HD-DVDs
Duration                                 : 2 h 2 min
Bit rate                                 : 37.8 kb/s
Frame rate                               : 0.473 FPS
Count of elements                        : 3480
Stream size                              : 33.2 MiB (0%)
Title                                    : Malay
Language                                 : Malay
Default                                  : Yes
Forced                                   : No

Text #22
ID                                       : 25
Format                                   : PGS
Muxing mode                              : zlib
Codec ID                                 : S_HDMV/PGS
Codec ID/Info                            : Picture based subtitle format used on BDs/HD-DVDs
Duration                                 : 2 h 2 min
Bit rate                                 : 33.4 kb/s
Frame rate                               : 0.477 FPS
Count of elements                        : 3511
Stream size                              : 29.4 MiB (0%)
Title                                    : Portuguese (Brazilian)
Language                                 : Portuguese
Default                                  : Yes
Forced                                   : No

Text #23
ID                                       : 26
Format                                   : PGS
Muxing mode                              : zlib
Codec ID                                 : S_HDMV/PGS
Codec ID/Info                            : Picture based subtitle format used on BDs/HD-DVDs
Duration                                 : 1 h 57 min
Bit rate                                 : 34.6 kb/s
Frame rate                               : 0.436 FPS
Count of elements                        : 3062
Stream size                              : 29.0 MiB (0%)
Title                                    : Polish
Language                                 : Polish
Default                                  : Yes
Forced                                   : No

Text #24
ID                                       : 27
Format                                   : PGS
Muxing mode                              : zlib
Codec ID                                 : S_HDMV/PGS
Codec ID/Info                            : Picture based subtitle format used on BDs/HD-DVDs
Duration                                 : 1 h 56 min
Bit rate                                 : 30.7 kb/s
Frame rate                               : 0.338 FPS
Count of elements                        : 2364
Stream size                              : 25.7 MiB (0%)
Title                                    : Romanian
Language                                 : Romanian
Default                                  : Yes
Forced                                   : No

Text #25
ID                                       : 28
Format                                   : PGS
Muxing mode                              : zlib
Codec ID                                 : S_HDMV/PGS
Codec ID/Info                            : Picture based subtitle format used on BDs/HD-DVDs
Duration                                 : 1 h 57 min
Bit rate                                 : 40.2 kb/s
Frame rate                               : 0.510 FPS
Count of elements                        : 3584
Stream size                              : 33.7 MiB (0%)
Title                                    : Russian
Language                                 : Russian
Default                                  : Yes
Forced                                   : No

Text #26
ID                                       : 29
Format                                   : PGS
Muxing mode                              : zlib
Codec ID                                 : S_HDMV/PGS
Codec ID/Info                            : Picture based subtitle format used on BDs/HD-DVDs
Duration                                 : 2 h 2 min
Bit rate                                 : 31.3 kb/s
Frame rate                               : 0.397 FPS
Count of elements                        : 2924
Stream size                              : 27.5 MiB (0%)
Title                                    : Spanish (Latin American)
Language                                 : Spanish
Default                                  : Yes
Forced                                   : No

Text #27
ID                                       : 30
Format                                   : PGS
Muxing mode                              : zlib
Codec ID                                 : S_HDMV/PGS
Codec ID/Info                            : Picture based subtitle format used on BDs/HD-DVDs
Duration                                 : 2 h 2 min
Bit rate                                 : 31.6 kb/s
Frame rate                               : 0.437 FPS
Count of elements                        : 3216
Stream size                              : 27.7 MiB (0%)
Title                                    : Spanish (Castilian)
Language                                 : Spanish
Default                                  : Yes
Forced                                   : No

Text #28
ID                                       : 31
Format                                   : PGS
Muxing mode                              : zlib
Codec ID                                 : S_HDMV/PGS
Codec ID/Info                            : Picture based subtitle format used on BDs/HD-DVDs
Duration                                 : 1 h 57 min
Bit rate                                 : 32.0 kb/s
Frame rate                               : 0.328 FPS
Count of elements                        : 2308
Stream size                              : 26.8 MiB (0%)
Title                                    : Swedish
Language                                 : Swedish
Default                                  : Yes
Forced                                   : No

Text #29
ID                                       : 32
Format                                   : PGS
Muxing mode                              : zlib
Codec ID                                 : S_HDMV/PGS
Codec ID/Info                            : Picture based subtitle format used on BDs/HD-DVDs
Duration                                 : 2 h 2 min
Bit rate                                 : 31.3 kb/s
Frame rate                               : 0.484 FPS
Count of elements                        : 3566
Stream size                              : 27.5 MiB (0%)
Title                                    : Thai
Language                                 : Thai
Default                                  : Yes
Forced                                   : No

Text #30
ID                                       : 33
Format                                   : PGS
Muxing mode                              : zlib
Codec ID                                 : S_HDMV/PGS
Codec ID/Info                            : Picture based subtitle format used on BDs/HD-DVDs
Duration                                 : 1 h 57 min
Bit rate                                 : 43.9 kb/s
Frame rate                               : 0.461 FPS
Count of elements                        : 3236
Stream size                              : 36.8 MiB (0%)
Title                                    : Ukrainian
Language                                 : Ukrainian
Default                                  : Yes
Forced                                   : No

Menu
00:00:00.000                             : en:Chapter 01
00:07:33.203                             : en:Chapter 02
00:14:56.646                             : en:Chapter 03
00:23:43.255                             : en:Chapter 04
00:31:05.614                             : en:Chapter 05
00:38:43.071                             : en:Chapter 06
00:45:26.349                             : en:Chapter 07
00:53:27.329                             : en:Chapter 08
01:00:22.035                             : en:Chapter 09
01:07:29.254                             : en:Chapter 10
01:12:55.162                             : en:Chapter 11
01:22:12.344                             : en:Chapter 12
01:29:49.092                             : en:Chapter 13
01:36:47.802                             : en:Chapter 14
01:42:08.581                             : en:Chapter 15
01:53:55.912                             : en:Chapter 16





  User comments    Sort newest first atOptions = {'key' : '59354b0c63c60cd2098244312b6753ed','format' : 'iframe','height' : 50,'width' : 320,'params' : {}};document.write('');

评论