切尔卡瑟U-311.Minenraeumboot.Cherkasy.2019.DUAL.COMPLETE.BLURAY.REMUX-iFPD

2023-10-28 14:16 0 126 8
【中文片名】: 切尔卡瑟
【片名】: U-311.Minenraeumboot.Cherkasy.2019.DUAL.COMPLETE.BLURAY.REMUX-iFPD
【又名】: Cherkasi,Cherkasy,Черкассы
【格式】: Remux
【国家】: 乌克兰
【影片类型】: 剧情 / 战争
【主演】:
【时长】: 102分钟
【上映时间】: 2019-07-16(敖德萨国际电影节) / 2020-02-22(乌克兰)
【评分】: 0 6.6
【文件大小】: 20510
【剧情介绍】: 点击查看

您所在用户组暂时无法直接查看隐藏内容,请登陆后重试!!!

内容简介


U311 Cherkasy
https://www.imdb.com/title/tt8205656/

MOVIE INFO
Genre: Drama History War
Stars: Dmitriy Sova, Evgeniy Lamakh, Roman Semysal
Plot: The crew of Ukrainian NAVY minesweeper U311 "Cherkasy" is resisting seizure of the vessel by Russian army in Crimea in 2014.
Audio: Ukrainian - DTS-HD MA, German - DTS-HD

Included subtitles
English [PGS]
German [PGS]

 MEDIAINFOGeneral
Unique ID                                : 229015151602385745815148164689437920921 (0xAC4AB6BCD691F04D9FA072713A300E99)
Complete name                            : U-311.Minenraeumboot.Cherkasy.2019.DUAL.COMPLETE.BLURAY-iFPDU-311 Cherkasy.mkv
Format                                   : Matroska
Format version                           : Version 4
File size                                : 20.3 GiB
Duration                                 : 1 h 34 min
Overall bit rate mode                    : Variable
Overall bit rate                         : 31.0 Mb/s
Movie name                               : U-311 Cherkasy
Encoded date                             : UTC 2023-10-27 19:41:40
Writing application                      : mkvmerge v79.0 ('Funeral Pyres') 64-bit
Writing library                          : libebml v1.4.4 + libmatroska v1.7.1
Cover                                    : Yes
Attachments                              : cover.jpg

Video
ID                                       : 1
Format                                   : AVC
Format/Info                              : Advanced Video Codec
Format profile                           : High@L4.1
Format settings                          : CABAC / 4 Ref Frames
Format settings, CABAC                   : Yes
Format settings, Reference frames        : 4 frames
Format settings, GOP                     : M=3, N=24
Codec ID                                 : V_MPEG4/ISO/AVC
Duration                                 : 1 h 34 min
Bit rate mode                            : Variable
Bit rate                                 : 25.0 Mb/s
Maximum bit rate                         : 35.0 Mb/s
Width                                    : 1 920 pixels
Height                                   : 1 080 pixels
Display aspect ratio                     : 16:9
Frame rate mode                          : Constant
Frame rate                               : 24.000 FPS
Color space                              : YUV
Chroma subsampling                       : 4:2:0
Bit depth                                : 8 bits
Scan type                                : Progressive
Bits/(Pixel*Frame)                       : 0.502
Stream size                              : 16.4 GiB (81%)
Default                                  : Yes
Forced                                   : No
Color range                              : Limited
Color primaries                          : BT.709
Transfer characteristics                 : BT.709
Matrix coefficients                      : BT.709

Audio #1
ID                                       : 2
ID in the original source medium         : 4353 (0x1101)
Format                                   : DTS XLL
Format/Info                              : Digital Theater Systems
Commercial name                          : DTS-HD Master Audio
Codec ID                                 : A_DTS
Duration                                 : 1 h 34 min
Bit rate mode                            : Variable
Bit rate                                 : 2 338 kb/s
Channel(s)                               : 6 channels
Channel layout                           : C L R Ls Rs LFE
Sampling rate                            : 48.0 kHz
Frame rate                               : 93.750 FPS (512 SPF)
Bit depth                                : 16 bits
Compression mode                         : Lossless
Stream size                              : 1.54 GiB (8%)
Language                                 : Ukrainian
Default                                  : Yes
Forced                                   : No
Original source medium                   : Blu-ray

Audio #2
ID                                       : 3
ID in the original source medium         : 4352 (0x1100)
Format                                   : DTS XLL
Format/Info                              : Digital Theater Systems
Commercial name                          : DTS-HD Master Audio
Codec ID                                 : A_DTS
Duration                                 : 1 h 33 min
Bit rate mode                            : Variable
Bit rate                                 : 3 616 kb/s
Channel(s)                               : 6 channels
Channel layout                           : C L R Ls Rs LFE
Sampling rate                            : 48.0 kHz
Frame rate                               : 93.750 FPS (512 SPF)
Bit depth                                : 24 bits
Compression mode                         : Lossless
Stream size                              : 2.37 GiB (12%)
Language                                 : German
Default                                  : Yes
Forced                                   : No
Original source medium                   : Blu-ray

Text #1
ID                                       : 4
ID in the original source medium         : 4609 (0x1201)
Format                                   : PGS
Muxing mode                              : zlib
Codec ID                                 : S_HDMV/PGS
Codec ID/Info                            : Picture based subtitle format used on BDs/HD-DVDs
Duration                                 : 1 h 27 min
Bit rate                                 : 14.2 kb/s
Frame rate                               : 0.301 FPS
Count of elements                        : 1584
Stream size                              : 8.91 MiB (0%)
Language                                 : English
Default                                  : Yes
Forced                                   : No
Original source medium                   : Blu-ray

Text #2
ID                                       : 5
ID in the original source medium         : 4608 (0x1200)
Format                                   : PGS
Muxing mode                              : zlib
Codec ID                                 : S_HDMV/PGS
Codec ID/Info                            : Picture based subtitle format used on BDs/HD-DVDs
Duration                                 : 1 h 27 min
Bit rate                                 : 1 375 b/s
Frame rate                               : 0.020 FPS
Count of elements                        : 104
Stream size                              : 885 KiB (0%)
Language                                 : German
Default                                  : Yes
Forced                                   : No
Original source medium                   : Blu-ray

Menu
00:00:00.000                             : en:Chapter 01
00:09:00.750                             : en:Chapter 02
00:27:06.958                             : en:Chapter 03
00:35:40.791                             : en:Chapter 04
00:47:08.416                             : en:Chapter 05
00:57:52.166                             : en:Chapter 06
01:12:07.291                             : en:Chapter 07
01:23:45.208                             : en:Chapter 08

评论