高地行动High.Ground.2020.COMPLETE.BLURAY.REMUX-UNTOUCHED

2023-11-16 02:03 0 23 0
【中文片名】: 高地行动
【片名】: High.Ground.2020.COMPLETE.BLURAY.REMUX-UNTOUCHED
【又名】:
【格式】: Remux
【国家】: 澳大利亚
【影片类型】: 动作 / 惊悚 / 历史 / 西部
【主演】: 西蒙·贝克 / 卡兰·马尔韦 / 瑞安·柯尔 / 杰克·汤普森 / 约翰·布鲁普顿 / 凯伦·皮斯托里斯 / 大卫·菲尔德 / 安迪·麦克菲 / 克里斯·阿纳斯塔西亚德斯 / 斯蒂芬·麦克斯韦·约翰逊 / 亚伦·佩德森
【时长】: 104分钟
【上映时间】: 2020-02-23(柏林电影节) / 2020-07-09(澳大利亚)
【评分】: 5.7 0
【文件大小】: 18850
【剧情介绍】: 点击查看

您所在用户组暂时无法直接查看隐藏内容,请登陆后重试!!!

内容简介


High Ground (2020)
https://www.imdb.com/title/tt9286908/

MOVIE INFO
Genre: Action Drama Thriller
Stars: Guruwuk Mununggurr, Wakarra Gondarra, Mark Garrawurra,
Plot: In a bid to save the last of his family, Gutjuk, a young Aboriginal man, teams up with ex-soldier Travis to track down Baywara, the most dangerous warrior in the Territory, his uncle.
Audio: English - DTS-HD, German - DTS-HD

Included subtitles
German [PGS]
English [PGS]


-----------------------------------------------------------------------------------

Screenshots







-----------------------------------------------------------------------------------


 MEDIA INFOGeneral
Unique ID                                : 208027162258402096138152806038368757504 (0x9C8092F879BD2039A395F7271E692700)
Complete name                            : High.Ground.2020.COMPLETE.BLURAY.REMUX-UNTOUCHED.mkv
Format                                   : Matroska
Format version                           : Version 4
File size                                : 18.6 GiB
Duration                                 : 1 h 44 min
Overall bit rate mode                    : Variable
Overall bit rate                         : 25.4 Mb/s
Movie name                               : High Ground
Encoded date                             : UTC 2023-11-15 16:41:34
Writing application                      : mkvmerge v80.0 ('Roundabout') 64-bit
Writing library                          : libebml v1.4.4 + libmatroska v1.7.1
Cover                                    : Yes
Attachments                              : cover.jpg

Video
ID                                       : 1
ID in the original source medium         : 4113 (0x1011)
Format                                   : AVC
Format/Info                              : Advanced Video Codec
Format profile                           : High@L4.1
Format settings                          : CABAC / 2 Ref Frames
Format settings, CABAC                   : Yes
Format settings, Reference frames        : 2 frames
Codec ID                                 : V_MPEG4/ISO/AVC
Duration                                 : 1 h 44 min
Bit rate mode                            : Variable
Bit rate                                 : 21.2 Mb/s
Maximum bit rate                         : 35.2 Mb/s
Width                                    : 1 920 pixels
Height                                   : 1 080 pixels
Display aspect ratio                     : 16:9
Frame rate mode                          : Constant
Frame rate                               : 24.000 FPS
Color space                              : YUV
Chroma subsampling                       : 4:2:0
Bit depth                                : 8 bits
Scan type                                : Progressive
Bits/(Pixel*Frame)                       : 0.426
Stream size                              : 15.5 GiB (83%)
Default                                  : Yes
Forced                                   : No
Original source medium                   : Blu-ray

Audio #1
ID                                       : 2
ID in the original source medium         : 4353 (0x1101)
Format                                   : DTS XLL
Format/Info                              : Digital Theater Systems
Commercial name                          : DTS-HD Master Audio
Codec ID                                 : A_DTS
Duration                                 : 1 h 44 min
Bit rate mode                            : Variable
Bit rate                                 : 1 983 kb/s
Channel(s)                               : 6 channels
Channel layout                           : C L R Ls Rs LFE
Sampling rate                            : 48.0 kHz
Frame rate                               : 93.750 FPS (512 SPF)
Bit depth                                : 16 bits
Compression mode                         : Lossless
Stream size                              : 1.45 GiB (8%)
Language                                 : English
Default                                  : Yes
Forced                                   : No
Original source medium                   : Blu-ray

Audio #2
ID                                       : 3
ID in the original source medium         : 4352 (0x1100)
Format                                   : DTS XLL
Format/Info                              : Digital Theater Systems
Commercial name                          : DTS-HD Master Audio
Codec ID                                 : A_DTS
Duration                                 : 1 h 44 min
Bit rate mode                            : Variable
Bit rate                                 : 2 236 kb/s
Channel(s)                               : 6 channels
Channel layout                           : C L R Ls Rs LFE
Sampling rate                            : 48.0 kHz
Frame rate                               : 93.750 FPS (512 SPF)
Bit depth                                : 16 bits
Compression mode                         : Lossless
Stream size                              : 1.63 GiB (9%)
Language                                 : German
Default                                  : Yes
Forced                                   : No
Original source medium                   : Blu-ray

Text #1
ID                                       : 4
ID in the original source medium         : 4608 (0x1200)
Format                                   : PGS
Muxing mode                              : zlib
Codec ID                                 : S_HDMV/PGS
Codec ID/Info                            : Picture based subtitle format used on BDs/HD-DVDs
Duration                                 : 1 h 35 min
Bit rate                                 : 23.1 kb/s
Frame rate                               : 0.270 FPS
Count of elements                        : 1539
Stream size                              : 15.7 MiB (0%)
Language                                 : German
Default                                  : Yes
Forced                                   : No
Original source medium                   : Blu-ray

Text #2
ID                                       : 5
ID in the original source medium         : 4610 (0x1202)
Format                                   : PGS
Muxing mode                              : zlib
Codec ID                                 : S_HDMV/PGS
Codec ID/Info                            : Picture based subtitle format used on BDs/HD-DVDs
Duration                                 : 1 h 24 min
Bit rate                                 : 5 694 b/s
Frame rate                               : 0.082 FPS
Count of elements                        : 413
Stream size                              : 3.43 MiB (0%)
Language                                 : English
Default                                  : Yes
Forced                                   : No
Original source medium                   : Blu-ray

Text #3
ID                                       : 6
ID in the original source medium         : 4609 (0x1201)
Format                                   : PGS
Muxing mode                              : zlib
Codec ID                                 : S_HDMV/PGS
Codec ID/Info                            : Picture based subtitle format used on BDs/HD-DVDs
Duration                                 : 1 h 35 min
Bit rate                                 : 6 500 b/s
Frame rate                               : 0.080 FPS
Count of elements                        : 454
Stream size                              : 4.42 MiB (0%)
Language                                 : German
Default                                  : Yes
Forced                                   : No
Original source medium                   : Blu-ray

Menu
00:00:00.000                             : en:Chapter 01
00:02:20.208                             : en:Chapter 02
00:06:05.083                             : en:Chapter 03
00:14:14.625                             : en:Chapter 04
00:20:32.916                             : en:Chapter 05
00:26:07.791                             : en:Chapter 06
00:37:07.291                             : en:Chapter 07
00:49:56.333                             : en:Chapter 08
00:58:28.083                             : en:Chapter 09
01:08:08.708                             : en:Chapter 10
01:20:08.833                             : en:Chapter 11
01:35:24.791                             : en:Chapter 12

  User comments    Sort newest first

评论