谎言之底What.Lies.Below.2020.1080p.BluRay.REMUX.AVC.DTS-HD.MA.5.1-TRiToN

2023-11-17 18:12 0 43 3
【中文片名】: 谎言之底
【片名】: What.Lies.Below.2020.1080p.BluRay.REMUX.AVC.DTS-HD.MA.5.1-TRiToN
【又名】: 湖中男妖
【格式】: 1080P
【国家】: 美国
【影片类型】: 悬疑 / 惊悚
【主演】: 米娜·苏瓦丽 / 艾玛·霍瓦特 / Braden R. Duemmler / Danny Corbo
【时长】:
【上映时间】: 2020-12-17(美国)
【评分】: 4.3 0
【文件大小】: 15220
【剧情介绍】: 点击查看

您所在用户组暂时无法直接查看隐藏内容,请登陆后重试!!!

内容简介


What Lies Below (2020)
https://www.imdb.com/title/tt9264728/

MOVIE INFO
Genre: Drama Horror Mystery
Stars: Ema Horvath, Troy Iwata, Danny Corbo
Plot: A 16-year-old girl returns home from camp and learns that her mother has a new boyfriend, one she intends to marry. A man whose charm, intelligence and beauty make him look like he's not human at all.
Audio: English - DTS-HD

Included subtitles
English [SRT]
Danish [SRT]
Finnish [SRT]
German [SRT]
Norwegian [SRT]
Swedish [SRT]

-----------------------------------------------------------------------------------

Screenshots







-----------------------------------------------------------------------------------


 MEDIA INFOGeneral
Unique ID                                : 83429415859220570815362738580448153828 (0x3EC3EBC844AB5A7D91E97E99558D10E4)
Complete name                            : What.Lies.Below.2020.1080p.BluRay.REMUX.AVC.DTS-HD.MA.5.1-TRiToN.mkv
Format                                   : Matroska
Format version                           : Version 4
File size                                : 15.2 GiB
Duration                                 : 1 h 27 min
Overall bit rate mode                    : Variable
Overall bit rate                         : 24.8 Mb/s
Movie name                               : What Lies Below (2020)
Encoded date                             : UTC 2022-06-16 20:47:38
Writing application                      : mkvmerge v68.0.0 ('The Curtain') 64-bit
Writing library                          : libebml v1.4.2 + libmatroska v1.6.4
IMDB                                     : tt9264728
TMDB                                     : movie/716703

Video
ID                                       : 1
Format                                   : AVC
Format/Info                              : Advanced Video Codec
Format profile                           : High@L4.1
Format settings                          : CABAC / 4 Ref Frames
Format settings, CABAC                   : Yes
Format settings, Reference frames        : 4 frames
Codec ID                                 : V_MPEG4/ISO/AVC
Duration                                 : 1 h 27 min
Bit rate mode                            : Constant
Bit rate                                 : 22.0 Mb/s
Width                                    : 1 920 pixels
Height                                   : 1 080 pixels
Display aspect ratio                     : 16:9
Frame rate mode                          : Constant
Frame rate                               : 23.976 (24000/1001) FPS
Standard                                 : NTSC
Color space                              : YUV
Chroma subsampling                       : 4:2:0
Bit depth                                : 8 bits
Scan type                                : Progressive
Bits/(Pixel*Frame)                       : 0.443
Stream size                              : 13.0 GiB (86%)
Title                                    : MPEG-4 AVC Video / 22001 kbps / 1080p / 23.976 fps / 16:9 / High Profile 4.1
Language                                 : zxx
Default                                  : Yes
Forced                                   : No
Color range                              : Limited
Color primaries                          : BT.709
Transfer characteristics                 : BT.709
Matrix coefficients                      : BT.709

Audio
ID                                       : 2
Format                                   : DTS XLL
Format/Info                              : Digital Theater Systems
Commercial name                          : DTS-HD Master Audio
Codec ID                                 : A_DTS
Duration                                 : 1 h 27 min
Bit rate mode                            : Variable
Bit rate                                 : 3 511 kb/s
Channel(s)                               : 6 channels
Channel layout                           : C L R Ls Rs LFE
Sampling rate                            : 48.0 kHz
Frame rate                               : 93.750 FPS (512 SPF)
Bit depth                                : 24 bits
Compression mode                         : Lossless
Stream size                              : 2.16 GiB (14%)
Title                                    : DTS-HD Master Audio / 5.1 / 48 kHz / 3510 kbps / 24-bit
Language                                 : English
Default                                  : Yes
Forced                                   : No

Text #1
ID                                       : 3
Format                                   : UTF-8
Codec ID                                 : S_TEXT/UTF8
Codec ID/Info                            : UTF-8 Plain Text
Duration                                 : 1 h 27 min
Bit rate                                 : 42 b/s
Frame rate                               : 0.223 FPS
Count of elements                        : 1173
Stream size                              : 26.9 KiB (0%)
Title                                    : SDH
Language                                 : English
Default                                  : No
Forced                                   : No

Text #2
ID                                       : 4
Format                                   : UTF-8
Codec ID                                 : S_TEXT/UTF8
Codec ID/Info                            : UTF-8 Plain Text
Duration                                 : 1 h 21 min
Bit rate                                 : 25 b/s
Frame rate                               : 0.108 FPS
Count of elements                        : 528
Stream size                              : 14.9 KiB (0%)
Language                                 : Danish
Default                                  : No
Forced                                   : No

Text #3
ID                                       : 5
Format                                   : UTF-8
Codec ID                                 : S_TEXT/UTF8
Codec ID/Info                            : UTF-8 Plain Text
Duration                                 : 1 h 21 min
Bit rate                                 : 28 b/s
Frame rate                               : 0.106 FPS
Count of elements                        : 518
Stream size                              : 16.9 KiB (0%)
Language                                 : Finnish
Default                                  : No
Forced                                   : No

Text #4
ID                                       : 6
Format                                   : PGS
Codec ID                                 : S_HDMV/PGS
Codec ID/Info                            : Picture based subtitle format used on BDs/HD-DVDs
Duration                                 : 1 h 21 min
Bit rate                                 : 19.8 kb/s
Frame rate                               : 0.344 FPS
Count of elements                        : 1682
Stream size                              : 11.5 MiB (0%)
Language                                 : German
Default                                  : No
Forced                                   : No

Text #5
ID                                       : 7
Format                                   : UTF-8
Codec ID                                 : S_TEXT/UTF8
Codec ID/Info                            : UTF-8 Plain Text
Duration                                 : 1 h 21 min
Bit rate                                 : 26 b/s
Frame rate                               : 0.108 FPS
Count of elements                        : 528
Stream size                              : 15.8 KiB (0%)
Language                                 : Norwegian
Default                                  : No
Forced                                   : No

Text #6
ID                                       : 8
Format                                   : UTF-8
Codec ID                                 : S_TEXT/UTF8
Codec ID/Info                            : UTF-8 Plain Text
Duration                                 : 1 h 21 min
Bit rate                                 : 27 b/s
Frame rate                               : 0.108 FPS
Count of elements                        : 528
Stream size                              : 16.3 KiB (0%)
Language                                 : Swedish
Default                                  : No
Forced                                   : No

Menu
00:00:00.000                             : en:Chapter 01
00:09:29.152                             : en:Chapter 02
00:17:21.082                             : en:Chapter 03
00:24:54.910                             : en:Chapter 04
00:35:04.728                             : en:Chapter 05
00:41:06.422                             : en:Chapter 06
00:49:11.407                             : en:Chapter 07
00:57:51.718                             : en:Chapter 08
01:06:16.181                             : en:Chapter 09
01:13:46.422                             : en:Chapter 10
01:20:37.499                             : en:Chapter 11
01:24:38.824                             : en:Chapter 12

  User comments    Sort newest first

评论