比佛利山超级警探2Beverly Hills Cop II 1987 Remastered 1080p BluRay 10Bit X265 DD 5 1-Chivaman

2023-11-21 06:52 0 16 0
【中文片名】: 比佛利山超级警探2
【片名】: Beverly Hills Cop II 1987 Remastered 1080p BluRay 10Bit X265 DD 5 1-Chivaman
【又名】: 轰天雷2
【格式】: 1080P
【国家】: 美国
【影片类型】: 动作 / 喜剧 / 惊悚 / 犯罪
【主演】: Larry Ferguson / Ronny Cox / Eddie Murphy / Tony Scott / Jürgen Prochnow / Judge Reinhold / Warren Skaaren / Danilo Bach / Daniel Petrie Jr. / Robert D. Wachs / John Ashton
【时长】: 100 分钟
【上映时间】: 1987-05-20
【评分】: 6.5 6.4
【文件大小】: 4010
【剧情介绍】: 点击查看

您所在用户组暂时无法直接查看隐藏内容,请登陆后重试!!!

内容简介

Complete name                  : Beverly.Hills.Cop.II.1987.Remastered.1080p.BluRay.10Bit.X265.DD.5.1-Chivaman.mkv
Format                         : Matroska
Format version                 : Version 4 / Version 2
File size                      : 4.01 GiB
Duration                       : 1 h 42 min
Overall bit rate               : 5 580 kb/s
Frame rate                     : 23.976 FPS
Encoded date                   : 2023-01-16 02:33:25 UTC
Writing application            : mkvmerge v70.0.0 ('Caught A Lite Sneeze') 64-bit
Writing library                : libebml v1.4.2 + libmatroska v1.6.4 / Lavf59.27.100

Video
ID                             : 1
Format                         : HEVC
Format/Info                    : High Efficiency Video Coding
Format profile                 : Main 10@L4@Main
Codec ID                       : V_MPEGH/ISO/HEVC
Duration                       : 1 h 42 min
Bit rate                       : 4 794 kb/s
Width                          : 1 920 pixels
Height                         : 816 pixels
Display aspect ratio           : 2.35:1
Frame rate mode                : Constant
Frame rate                     : 23.976 (24000/1001) FPS
Color space                    : YUV
Chroma subsampling             : 4:2:0 (Type 0)
Bit depth                      : 10 bits
Bits/(Pixel*Frame)             : 0.128
Stream size                    : 3.45 GiB (86%)
Writing library                : x265 3.5+1-f0c1022b6:[Windows][GCC 10.2.0][64 bit] 10bit
Encoding settings              : cpuid=1111039 / frame-threads=4 / numa-pools=24 / wpp / no-pmode / no-pme / no-psnr / no-ssim / log-level=2 / input-csp=1 / input-res=1920x816 / interlace=0 / total-frames=0 / level-idc=0 / high-tier=1 / uhd-bd=0 / ref=4 / no-allow-non-conformance / no-repeat-headers / annexb / no-aud / no-eob / no-eos / no-hrd / info / hash=0 / no-temporal-layers / no-open-gop / min-keyint=24 / keyint=240 / gop-lookahead=0 / bframes=4 / b-adapt=2 / b-pyramid / bframe-bias=0 / rc-lookahead=25 / lookahead-slices=4 / scenecut=40 / no-hist-scenecut / radl=0 / no-splice / no-intra-refresh / ctu=32 / min-cu-size=16 / no-rect / no-amp / max-tu-size=32 / tu-inter-depth=1 / tu-intra-depth=1 / limit-tu=0 / rdoq-level=2 / dynamic-rd=0.00 / no-ssim-rd / signhide / no-tskip / nr-intra=0 / nr-inter=0 / no-constrained-intra / no-strong-intra-smoothing / max-merge=3 / limit-refs=3 / limit-modes / me=3 / subme=3 / merange=26 / temporal-mvp / no-frame-dup / no-hme / weightp / no-weightb / no-analyze-src-pics / deblock=-2:-2 / no-sao / no-sao-non-deblock / rd=4 / selective-sao=0 / early-skip / rskip / rskip-edge-threshold=0.050000 / no-fast-intra / no-tskip-fast / no-cu-lossless / no-b-intra / no-splitrd-skip / rdpenalty=0 / psy-rd=1.10 / psy-rdoq=0.60 / no-rd-refine / no-lossless / cbqpoffs=0 / crqpoffs=0 / rc=abr / bitrate=4800 / qcomp=0.60 / qpstep=4 / stats-write=0 / stats-read=2 / cplxblur=20.0 / qblur=0.5 / ipratio=1.40 / pbratio=1.30 / aq-mode=3 / aq-strength=0.75 / no-cutree / zone-count=0 / no-strict-cbr / qg-size=16 / no-rc-grain / qpmax=69 / qpmin=0 / no-const-vbv / sar=1 / overscan=0 / videoformat=5 / range=0 / colorprim=1 / transfer=1 / colormatrix=1 / chromaloc=1 / chromaloc-top=0 / chromaloc-bottom=0 / display-window=0 / cll=0,0 / min-luma=0 / max-luma=1023 / log2-max-poc-lsb=8 / vui-timing-info / vui-hrd-info / slices=1 / no-opt-qp-pps / no-opt-ref-list-length-pps / no-multi-pass-opt-rps / scenecut-bias=0.05 / hist-threshold=0.03 / no-opt-cu-delta-qp / no-aq-motion / no-hdr10 / no-hdr10-opt / no-dhdr10-opt / no-idr-recovery-sei / analysis-reuse-level=0 / analysis-save-reuse-level=0 / analysis-load-reuse-level=0 / scale-factor=0 / refine-intra=0 / refine-inter=0 / refine-mv=1 / refine-ctu-distortion=0 / no-limit-sao / ctu-info=0 / no-lowpass-dct / refine-analysis-type=0 / copy-pic=1 / max-ausize-factor=1.0 / no-dynamic-refine / no-single-sei / no-hevc-aq / no-svt / no-field / qp-adaptation-range=1.00 / scenecut-aware-qp=0conformance-window-offsets / right=0 / bottom=0 / decoder-max-rate=0 / no-vbv-live-multi-pass
Default                        : Yes
Forced                         : No
Color range                    : Limited
Color primaries                : BT.709
Transfer characteristics       : BT.709
Matrix coefficients            : BT.709

Audio
ID                             : 2
Format                         : AC-3
Format/Info                    : Audio Coding 3
Commercial name                : Dolby Digital
Codec ID                       : A_AC3
Duration                       : 1 h 42 min
Bit rate mode                  : Constant
Bit rate                       : 640 kb/s
Channel(s)                     : 6 channels
Channel layout                 : L R C LFE Ls Rs
Sampling rate                  : 48.0 kHz
Frame rate                     : 31.250 FPS (1536 SPF)
Compression mode               : Lossy
Delay relative to video        : -1 s 6 ms
Stream size                    : 471 MiB (11%)
Title                          : Dolby Digital 5.1
Language                       : English
Service kind                   : Complete Main
Default                        : Yes
Forced                         : No

Text #1
ID                             : 3
Format                         : PGS
Muxing mode                    : zlib
Codec ID                       : S_HDMV/PGS
Codec ID/Info                  : Picture based subtitle format used on BDs/HD-DVDs
Duration                       : 1 h 42 min
Bit rate                       : 62.9 kb/s
Frame rate                     : 0.419 FPS
Count of elements              : 2568
Stream size                    : 45.9 MiB (1%)
Language                       : English
Default                        : Yes
Forced                         : No

Text #2
ID                             : 4
Format                         : PGS
Muxing mode                    : zlib
Codec ID                       : S_HDMV/PGS
Codec ID/Info                  : Picture based subtitle format used on BDs/HD-DVDs
Duration                       : 1 h 42 min
Bit rate                       : 46.0 kb/s
Frame rate                     : 0.375 FPS
Count of elements              : 2296
Stream size                    : 33.6 MiB (1%)
Language                       : Danish
Default                        : No
Forced                         : No

Text #3
ID                             : 5
Format                         : PGS
Muxing mode                    : zlib
Codec ID                       : S_HDMV/PGS
Codec ID/Info                  : Picture based subtitle format used on BDs/HD-DVDs
Duration                       : 1 h 42 min
Bit rate                       : 56.5 kb/s
Frame rate                     : 0.386 FPS
Count of elements              : 2362
Stream size                    : 41.3 MiB (1%)
Language                       : German
Default                        : No
Forced                         : No

Text #4
ID                             : 6
Format                         : PGS
Muxing mode                    : zlib
Codec ID                       : S_HDMV/PGS
Codec ID/Info                  : Picture based subtitle format used on BDs/HD-DVDs
Duration                       : 1 h 42 min
Bit rate                       : 48.5 kb/s
Frame rate                     : 0.386 FPS
Count of elements              : 2366
Stream size                    : 35.4 MiB (1%)
Language                       : Spanish
Default                        : No
Forced                         : No

Text #5
ID                             : 7
Format                         : PGS
Muxing mode                    : zlib
Codec ID                       : S_HDMV/PGS
Codec ID/Info                  : Picture based subtitle format used on BDs/HD-DVDs
Duration                       : 1 h 42 min
Bit rate                       : 50.7 kb/s
Frame rate                     : 0.380 FPS
Count of elements              : 2326
Stream size                    : 37.0 MiB (1%)
Language                       : French
Default                        : No
Forced                         : No

Text #6
ID                             : 8
Format                         : PGS
Muxing mode                    : zlib
Codec ID                       : S_HDMV/PGS
Codec ID/Info                  : Picture based subtitle format used on BDs/HD-DVDs
Duration                       : 1 h 42 min
Bit rate                       : 48.2 kb/s
Frame rate                     : 0.388 FPS
Count of elements              : 2374
Stream size                    : 35.2 MiB (1%)
Language                       : Italian
Default                        : No
Forced                         : No

Text #7
ID                             : 9
Format                         : PGS
Muxing mode                    : zlib
Codec ID                       : S_HDMV/PGS
Codec ID/Info                  : Picture based subtitle format used on BDs/HD-DVDs
Duration                       : 1 h 42 min
Bit rate                       : 49.2 kb/s
Frame rate                     : 0.348 FPS
Count of elements              : 2130
Stream size                    : 35.9 MiB (1%)
Language                       : Dutch
Default                        : No
Forced                         : No

Text #8
ID                             : 10
Format                         : PGS
Muxing mode                    : zlib
Codec ID                       : S_HDMV/PGS
Codec ID/Info                  : Picture based subtitle format used on BDs/HD-DVDs
Duration                       : 1 h 42 min
Bit rate                       : 45.7 kb/s
Frame rate                     : 0.390 FPS
Count of elements              : 2386
Stream size                    : 33.4 MiB (1%)
Language                       : Finnish
Default                        : No
Forced                         : No

Text #9
ID                             : 11
Format                         : PGS
Muxing mode                    : zlib
Codec ID                       : S_HDMV/PGS
Codec ID/Info                  : Picture based subtitle format used on BDs/HD-DVDs
Duration                       : 1 h 42 min
Bit rate                       : 43.3 kb/s
Frame rate                     : 0.393 FPS
Count of elements              : 2406
Stream size                    : 31.6 MiB (1%)
Language                       : Norwegian
Default                        : No
Forced                         : No

Text #10
ID                             : 12
Format                         : PGS
Muxing mode                    : zlib
Codec ID                       : S_HDMV/PGS
Codec ID/Info                  : Picture based subtitle format used on BDs/HD-DVDs
Duration                       : 1 h 42 min
Bit rate                       : 45.5 kb/s
Frame rate                     : 0.338 FPS
Count of elements              : 2080
Stream size                    : 33.4 MiB (1%)
Language                       : Swedish
Default                        : No
Forced                         : No


  User comments    Sort newest first

评论