微观世界微观世界[原盘DIY次时代国语.简繁中字].Microcosmos.Le.peuple.de.l'herbe.1996.BluRay.1080p.AVC.DTS-HD.MA5.1-TAG

2023-11-21 11:32 0 33 1
【中文片名】: 微观世界
【片名】: 微观世界[原盘DIY次时代国语.简繁中字].Microcosmos.Le.peuple.de.l'herbe.1996.BluRay.1080p.AVC.DTS-HD.MA5.1-TAG
【又名】: 小宇宙1:微观世界
【格式】: 1080P
【国家】: 法国 / 意大利 / 瑞士
【影片类型】: 纪录
【主演】: 克里斯汀·斯科特·托马斯 / 雅克·贝汉 / 克劳德·纽利迪萨尼 / 玛丽·佩莱诺
【时长】: 80分钟,73分钟(日本)
【上映时间】: 1996-09-06(瑞士),1996-11-20(法国)
【评分】: 7.9 9
【文件大小】: 23310
【剧情介绍】: 点击查看

您所在用户组暂时无法直接查看隐藏内容,请登陆后重试!!!

内容简介

Quote:

DISC INFO:

Disc Title: WEIGSJ
Disc Size: 20,781,326,147 bytes
Protection: AACS
BD-Java: No
BDInfo: 0.5.8

PLAYLIST REPORT:

Name: 00012.MPLS
Length: 1:15:25.479 (h:m:s.ms)
Size: 14,735,373,888 bytes
Total Bitrate: 26.05 Mbps

VIDEO:

Codec Bitrate Description
----- ------- -----------
MPEG-4 AVC Video 19772 kbps 1080p / 23.976 fps / 16:9 / High Profile 4.1

AUDIO:

Codec Language Bitrate Description
----- -------- ------- -----------
Dolby Digital Audio French 448 kbps 5.1 / 48 kHz / 448 kbps
DTS-HD Master Audio French 1853 kbps 5.1 / 48 kHz / 1853 kbps / 16-bit (DTS Core: 5.1 / 48 kHz / 1509 kbps / 16-bit)
Dolby Digital Audio Chinese 448 kbps 5.1 / 48 kHz / 448 kbps
DTS-HD Master Audio Chinese 1832 kbps 5.1 / 48 kHz / 1832 kbps / 16-bit (DTS Core: 5.1 / 48 kHz / 1509 kbps / 16-bit)

SUBTITLES:

Codec Language Bitrate Description
----- -------- ------- -----------
Presentation Graphics Chinese 0.628 kbps
Presentation Graphics Chinese 0.634 kbps
Presentation Graphics English 0.979 kbps

FILES:

Name Time In Length Size Total Bitrate
---- ------- ------ ---- -------------
00010.M2TS 0:00:00.000 0:02:17.011 443,074,560 25,871
00011.M2TS 0:02:17.011 0:01:49.192 385,953,792 28,277
00012.M2TS 0:04:06.204 0:04:02.367 801,755,136 26,464
00013.M2TS 0:08:08.571 0:03:01.139 563,490,816 24,887
00014.M2TS 0:11:09.710 0:07:45.506 1,560,311,808 26,815
00015.M2TS 0:18:55.217 0:04:13.670 921,649,152 29,066
00016.M2TS 0:23:08.887 0:02:29.065 593,596,416 31,857
00017.M2TS 0:25:37.953 0:03:13.026 710,608,896 29,451
00018.M2TS 0:28:50.979 0:03:14.027 709,533,696 29,255
00019.M2TS 0:32:05.006 0:02:56.843 671,219,712 30,364
00020.M2TS 0:35:01.849 0:01:46.064 380,817,408 28,724
00021.M2TS 0:36:47.913 0:07:09.554 1,513,224,192 28,182
00022.M2TS 0:43:57.468 0:06:32.934 1,444,859,904 29,417
00023.M2TS 0:50:30.402 0:01:30.048 360,517,632 32,029
00024.M2TS 0:52:00.450 0:02:51.045 614,338,560 28,733
00025.M2TS 0:54:51.496 0:03:45.683 758,894,592 26,901
00026.M2TS 0:58:37.180 0:03:25.371 616,421,376 24,012
00027.M2TS 1:02:02.552 0:06:40.858 934,699,008 18,654
00028.M2TS 1:08:43.410 0:04:24.222 523,395,072 15,847
00029.M2TS 1:13:07.633 0:02:17.846 227,012,160 13,175





  User comments    Sort newest first

评论