丁丁历险记The.Adventure.Of.Tintin.2011.1080p.BluRay.AVC.DTS-HD.MA.5.1.x264-PANAM

2023-11-28 10:46 0 16 0
【中文片名】: 丁丁历险记
【片名】: The.Adventure.Of.Tintin.2011.1080p.BluRay.AVC.DTS-HD.MA.5.1.x264-PANAM
【又名】: 丁丁历险记:独角兽号的秘密
【格式】: 1080P
【国家】: 美国 / 新西兰
【影片类型】: 动作 / 冒险 / 悬疑 / 家庭 / 动画
【主演】: 加利·艾尔维斯 / 史蒂文·斯皮尔伯格 / 西蒙·佩吉 / 埃德加·赖特 / 尼克·弗罗斯特 / 安迪·塞基斯 / 托比·琼斯 / 杰米·贝尔 / 丹尼尔·克雷格 / 史蒂文·莫法特 / Joe Cornish / 埃尔热
【时长】: 107分钟
【上映时间】: 2011-11-15(中国大陆),2011-12-21(美国)
【评分】: 7.4 7.6
【文件大小】: 5250
【剧情介绍】: 点击查看

您所在用户组暂时无法直接查看隐藏内容,请登陆后重试!!!

内容简介

Intrepid reporter Tintin and Captain Haddock set off on a treasure hunt for a sunken ship commanded by Haddock's ancestor.

Director
Steven Spielberg
Writers
HergéSteven MoffatEdgar Wright
Stars
Jamie BellAndy SerkisDaniel Craig










General
Unique ID                                : 187321247315145615482998256349706371292 (0x8CECC28B96235747E9A4BC3ED4AEC0DC)
Complete name                            : D:The.Adventure.Of.Tintin.2011.1080p.BluRay.AVC..mkv
Format                                   : Matroska
Format version                           : Version 4
File size                                : 5.25 GiB
Duration                                 : 1 h 46 min
Overall bit rate                         : 7 035 kb/s
Frame rate                               : 23.976 FPS
Movie name                               : The.Adventure.Of.Tintin.2011 (2020)
Encoded date                             : 2023-11-28 01:38:41 UTC
Writing application                      : mkvmerge v75.0.0 ('Goliath') 64-bit
Writing library                          : libebml v1.4.4 + libmatroska v1.7.1

Video
ID                                       : 1
Format                                   : AVC
Format/Info                              : Advanced Video Codec
Format profile                           : High@L4.1
Format settings                          : CABAC / 5 Ref Frames
Format settings, CABAC                   : Yes
Format settings, Reference frames        : 5 frames
Codec ID                                 : V_MPEG4/ISO/AVC
Duration                                 : 1 h 46 min
Bit rate                                 : 5 524 kb/s
Width                                    : 1 920 pixels
Height                                   : 816 pixels
Display aspect ratio                     : 2.35:1
Frame rate mode                          : Constant
Frame rate                               : 23.976 (24000/1001) FPS
Color space                              : YUV
Chroma subsampling                       : 4:2:0
Bit depth                                : 8 bits
Scan type                                : Progressive
Bits/(Pixel*Frame)                       : 0.147
Stream size                              : 4.12 GiB (79%)
Writing library                          : x264 core 164 r3144+1M 1606929
Encoding settings                        : cabac=1 / ref=5 / deblock=1:-1:-1 / analyse=0x3:0x133 / me=umh / subme=10 / psy=1 / psy_rd=1.00:0.15 / mixed_ref=1 / me_range=24 / chroma_me=1 / trellis=2 / 8x8dct=1 / cqm=0 / deadzone=21,11 / fast_pskip=1 / chroma_qp_offset=-3 / threads=25 / lookahead_threads=4 / sliced_threads=0 / nr=0 / decimate=1 / interlaced=0 / bluray_compat=0 / constrained_intra=0 / bframes=8 / b_pyramid=2 / b_adapt=2 / b_bias=0 / direct=3 / weightb=1 / open_gop=1 / weightp=2 / keyint=240 / keyint_min=23 / scenecut=40 / intra_refresh=0 / rc_lookahead=60 / rc=crf / mbtree=1 / crf=19.0 / qcomp=0.60 / qpmin=0 / qpmax=69 / qpstep=4 / ip_ratio=1.40 / aq=1:1.00
Default                                  : Yes
Forced                                   : No
Color range                              : Limited
Color primaries                          : BT.709
Transfer characteristics                 : BT.709
Matrix coefficients                      : BT.709

Audio
ID                                       : 2
Format                                   : DTS
Format/Info                              : Digital Theater Systems
Codec ID                                 : A_DTS
Duration                                 : 1 h 46 min
Bit rate mode                            : Constant
Bit rate                                 : 1 509 kb/s
Channel(s)                               : 6 channels
Channel layout                           : C L R Ls Rs LFE
Sampling rate                            : 48.0 kHz
Frame rate                               : 93.750 FPS (512 SPF)
Bit depth                                : 24 bits
Compression mode                         : Lossy
Stream size                              : 1.13 GiB (21%)
Language                                 : English
Default                                  : Yes
Forced                                   : No

  User comments    Sort newest first

评论