威尼斯惊魂夜A.Haunting.In.Venice.2023.1080p.BluRay.AVC.DTS-HD.MA.7.1.x264-PANAM

2023-11-30 01:53 0 34 2
【中文片名】: 威尼斯惊魂夜
【片名】: A.Haunting.In.Venice.2023.1080p.BluRay.AVC.DTS-HD.MA.7.1.x264-PANAM
【又名】: 威尼斯鬼魅,威尼斯谋杀案(港),威尼斯魅影谋杀案(台),万圣节前夜的谋杀案
【格式】: 1080P
【国家】: 美国 / 英国 / 意大利
【影片类型】: 剧情 / 悬疑 / 惊悚 / 恐怖 / 犯罪
【主演】: 蒂娜·菲 / 杨紫琼 / 阿加莎·克里斯蒂 / 凯利·蕾莉 / 肯尼思·布拉纳 / 詹米·多南 / 迈克尔·格林 / 凯尔·艾伦 / 大卫·曼金 / 卡米尔·科坦 / 埃米尔·艾尔-马斯里 / 阿里·坎 / 裘德·希尔 / 里卡尔多·斯卡马奇奥 / 艾玛·莱尔德 / 罗文·罗宾逊 / 埃丝特·雷·蒂洛森 / 迪伦·科贝特-巴德 / 费尔南多·皮洛尼 / 洛伦佐·阿夸维瓦 / 雅奥·尼马科-阿萨莫阿 / 克拉拉·杜兹马尔 / 斯特拉·哈里斯 / 埃米利奥·维拉·穆罕默德 / 凡妮莎·伊费迪奥拉 / 维尼·莫尼 / 理查德·普赖斯
【时长】: 103分钟
【上映时间】: 2023-09-15(美国/中国大陆) / 2023-09-13(法国)
【评分】: 0 6.3
【文件大小】: 5490
【剧情介绍】: 点击查看

您所在用户组暂时无法直接查看隐藏内容,请登陆后重试!!!

内容简介

In post-World War II Venice, Poirot, now retired and living in his own exile, reluctantly attends a seance. But when one of the guests is murdered, it is up to the former detective to once again uncover the killer.

Director
Kenneth Branagh
Writers
Michael GreenAgatha Christie
Stars
Kenneth BranaghMichelle YeohJamie Dornan











General
Unique ID                                : 15827246377014714071913648765291815104 (0xBE8377E774EB81C58475D7065AD60C0)
Complete name                            : D:A.Haunting.In.Venice.2023.1080p.BluRay.AVC.DTS-HD.MA.7.1.x264-PANAM.mkv
Format                                   : Matroska
Format version                           : Version 4
File size                                : 5.49 GiB
Duration                                 : 1 h 43 min
Overall bit rate mode                    : Variable
Overall bit rate                         : 7 600 kb/s
Frame rate                               : 23.976 FPS
Movie name                               : A Haunting in Venice
Writing application                      : Lavf60.18.100
Writing library                          : Lavf60.18.100
ErrorDetectionType                       : Per level 1

Video
ID                                       : 1
Format                                   : AVC
Format/Info                              : Advanced Video Codec
Format profile                           : High@L5
Format settings                          : CABAC / 5 Ref Frames
Format settings, CABAC                   : Yes
Format settings, Reference frames        : 5 frames
Codec ID                                 : V_MPEG4/ISO/AVC
Duration                                 : 1 h 43 min
Width                                    : 1 920 pixels
Height                                   : 1 036 pixels
Display aspect ratio                     : 1.85:1
Frame rate mode                          : Constant
Frame rate                               : 23.976 (24000/1001) FPS
Color space                              : YUV
Chroma subsampling                       : 4:2:0
Bit depth                                : 8 bits
Scan type                                : Progressive
Writing library                          : x264 core 164
Encoding settings                        : cabac=1 / ref=5 / deblock=1:0:0 / analyse=0x3:0x113 / me=hex / subme=8 / psy=1 / psy_rd=1.00:0.00 / mixed_ref=1 / me_range=16 / chroma_me=1 / trellis=2 / 8x8dct=1 / cqm=0 / deadzone=21,11 / fast_pskip=1 / chroma_qp_offset=-2 / threads=32 / lookahead_threads=5 / sliced_threads=0 / nr=0 / decimate=1 / interlaced=0 / bluray_compat=0 / constrained_intra=0 / bframes=3 / b_pyramid=2 / b_adapt=1 / b_bias=0 / direct=3 / weightb=1 / open_gop=0 / weightp=2 / keyint=250 / keyint_min=23 / scenecut=40 / intra_refresh=0 / rc_lookahead=50 / rc=crf / mbtree=1 / crf=22.0 / qcomp=0.60 / qpmin=0 / qpmax=69 / qpstep=4 / ip_ratio=1.40 / aq=1:1.00
Default                                  : Yes
Forced                                   : No

Audio #1
ID                                       : 2
Format                                   : DTS XLL
Format/Info                              : Digital Theater Systems
Commercial name                          : DTS-HD Master Audio
Codec ID                                 : A_DTS
Duration                                 : 1 h 43 min
Bit rate mode                            : Variable
Channel(s)                               : 8 channels
Channel layout                           : C L R LFE Lb Rb Lss Rss
Sampling rate                            : 48.0 kHz
Frame rate                               : 93.750 FPS (512 SPF)
Bit depth                                : 24 bits
Compression mode                         : Lossless
Title                                    : Surround 7.1
Language                                 : English
Default                                  : Yes
Forced                                   : No
HANDLER                                  : Surround 7.1

Audio #2
ID                                       : 3
Format                                   : AC-3
Format/Info                              : Audio Coding 3
Commercial name                          : Dolby Digital
Codec ID                                 : A_AC3
Duration                                 : 1 h 43 min
Bit rate mode                            : Constant
Bit rate                                 : 640 kb/s
Channel(s)                               : 6 channels
Channel layout                           : L R C LFE Ls Rs
Sampling rate                            : 48.0 kHz
Frame rate                               : 31.250 FPS (1536 SPF)
Bit depth                                : 32 bits
Compression mode                         : Lossy
Stream size                              : 473 MiB (8%)
Title                                    : Surround 5.1
Language                                 : French
Service kind                             : Complete Main
Default                                  : No
Forced                                   : No
HANDLER                                  : Surround 5.1

Audio #3
ID                                       : 4
Format                                   : AC-3
Format/Info                              : Audio Coding 3
Commercial name                          : Dolby Digital
Codec ID                                 : A_AC3
Duration                                 : 1 h 43 min
Bit rate mode                            : Constant
Bit rate                                 : 640 kb/s
Channel(s)                               : 6 channels
Channel layout                           : L R C LFE Ls Rs
Sampling rate                            : 48.0 kHz
Frame rate                               : 31.250 FPS (1536 SPF)
Bit depth                                : 32 bits
Compression mode                         : Lossy
Stream size                              : 473 MiB (8%)
Title                                    : Surround 5.1
Language                                 : Spanish
Service kind                             : Complete Main
Default                                  : No
Forced                                   : No
HANDLER                                  : Surround 5.1

Text #1
ID                                       : 5
Format                                   : PGS
Codec ID                                 : S_HDMV/PGS
Codec ID/Info                            : Picture based subtitle format used on BDs/HD-DVDs
Duration                                 : 1 h 38 min
Language                                 : English
Default                                  : No
Forced                                   : No

Text #2
ID                                       : 6
Format                                   : PGS
Codec ID                                 : S_HDMV/PGS
Codec ID/Info                            : Picture based subtitle format used on BDs/HD-DVDs
Duration                                 : 1 h 43 min
Language                                 : French
Default                                  : No
Forced                                   : No

Text #3
ID                                       : 7
Format                                   : PGS
Codec ID                                 : S_HDMV/PGS
Codec ID/Info                            : Picture based subtitle format used on BDs/HD-DVDs
Duration                                 : 1 h 38 min
Language                                 : Spanish
Default                                  : No
Forced                                   : No

  User comments    Sort newest first

评论