Valérian and the City of a Thousand PlanetsValerian and the City of a Thousand Planets 2017 1080p BluRay 10Bit X265 DD 5 1-Chivaman

2023-12-02 09:12 0 52 0
【中文片名】: Valérian and the City of a Thousand Planets
【片名】: Valerian and the City of a Thousand Planets 2017 1080p BluRay 10Bit X265 DD 5 1-Chivaman
【又名】: 星际特工:千星之城,瓦莱里安与一千颗行星的城市
【格式】: 1080P
【国家】: 法国
【影片类型】: 动作 / 冒险 / 科幻
【主演】: 阿兰·夏巴 / 戴恩·德哈恩 / 吕克·贝松 / 约翰·古德曼 / 克里夫·欧文 / 伊桑·霍克 / 萨姆·斯普卢尔 / 蕾哈娜 / 鲁特格尔·哈尔 / 山姆·道格拉斯 / 吴亦凡 / 卡拉·迪瓦伊 / 泽维尔·吉亚诺利 / 皮埃尔·克里斯汀 / 让-克劳德·梅济耶尔 / 赫比·汉考克
【时长】: 137分钟
【上映时间】: 2017-07-20(德国),2017-07-26(法国),2017-08-25(中国大陆)
【评分】: 6.6 7.1
【文件大小】: 5050
【剧情介绍】: 点击查看

您所在用户组暂时无法直接查看隐藏内容,请登陆后重试!!!

内容简介

Complete name                  : Valerian.and.the.City.of.a.Thousand.Planets.2017.1080p.BluRay.10Bit.X265.DD.5.1-Chivaman.mkv
Format                         : Matroska
Format version                 : Version 4 / Version 2
File size                      : 5.05 GiB
Duration                       : 2 h 17 min
Overall bit rate               : 5 277 kb/s
Frame rate                     : 23.976 FPS
Encoded date                   : 2022-08-18 01:42:26 UTC
Writing application            : mkvmerge v70.0.0 ('Caught A Lite Sneeze') 64-bit
Writing library                : libebml v1.4.2 + libmatroska v1.6.4 / Lavf58.76.100

Video
ID                             : 1
Format                         : HEVC
Format/Info                    : High Efficiency Video Coding
Format profile                 : Main 10@L4@Main
Codec ID                       : V_MPEGH/ISO/HEVC
Duration                       : 2 h 17 min
Bit rate                       : 4 597 kb/s
Width                          : 1 920 pixels
Height                         : 804 pixels
Display aspect ratio           : 2.40:1
Frame rate mode                : Constant
Frame rate                     : 23.976 (24000/1001) FPS
Color space                    : YUV
Chroma subsampling             : 4:2:0 (Type 0)
Bit depth                      : 10 bits
Bits/(Pixel*Frame)             : 0.124
Stream size                    : 4.40 GiB (87%)
Writing library                : x265 3.5+1-f0c1022b6:[Windows][GCC 10.2.0][64 bit] 10bit
Encoding settings              : cpuid=1111039 / frame-threads=4 / numa-pools=24 / wpp / no-pmode / no-pme / no-psnr / no-ssim / log-level=2 / input-csp=1 / input-res=1920x804 / interlace=0 / total-frames=0 / level-idc=0 / high-tier=1 / uhd-bd=0 / ref=4 / no-allow-non-conformance / no-repeat-headers / annexb / no-aud / no-hrd / info / hash=0 / no-temporal-layers / open-gop / min-keyint=24 / keyint=240 / gop-lookahead=0 / bframes=4 / b-adapt=2 / b-pyramid / bframe-bias=0 / rc-lookahead=25 / lookahead-slices=5 / scenecut=40 / hist-scenecut=0 / radl=0 / no-splice / no-intra-refresh / ctu=32 / min-cu-size=8 / no-rect / no-amp / max-tu-size=32 / tu-inter-depth=1 / tu-intra-depth=1 / limit-tu=0 / rdoq-level=2 / dynamic-rd=0.00 / no-ssim-rd / signhide / no-tskip / nr-intra=0 / nr-inter=0 / no-constrained-intra / no-strong-intra-smoothing / max-merge=3 / limit-refs=3 / limit-modes / me=1 / subme=2 / merange=48 / temporal-mvp / no-frame-dup / no-hme / weightp / no-weightb / no-analyze-src-pics / deblock=-2:-2 / no-sao / no-sao-non-deblock / rd=3 / selective-sao=0 / early-skip / rskip / rskip-edge-threshold=0.050000 / no-fast-intra / no-tskip-fast / no-cu-lossless / no-b-intra / no-splitrd-skip / rdpenalty=0 / psy-rd=1.60 / psy-rdoq=0.80 / no-rd-refine / no-lossless / cbqpoffs=0 / crqpoffs=0 / rc=abr / bitrate=4600 / qcomp=0.60 / qpstep=4 / stats-write=0 / stats-read=2 / cplxblur=20.0 / qblur=0.5 / ipratio=1.40 / pbratio=1.30 / aq-mode=3 / aq-strength=0.90 / no-cutree / zone-count=0 / no-strict-cbr / qg-size=16 / no-rc-grain / qpmax=69 / qpmin=0 / no-const-vbv / sar=1 / overscan=0 / videoformat=5 / range=0 / colorprim=1 / transfer=1 / colormatrix=1 / chromaloc=1 / chromaloc-top=0 / chromaloc-bottom=0 / display-window=0 / cll=0,0 / min-luma=0 / max-luma=1023 / log2-max-poc-lsb=8 / vui-timing-info / vui-hrd-info / slices=1 / no-opt-qp-pps / no-opt-ref-list-length-pps / no-multi-pass-opt-rps / scenecut-bias=0.05 / hist-threshold=0.03 / no-opt-cu-delta-qp / no-aq-motion / no-hdr10 / no-hdr10-opt / no-dhdr10-opt / no-idr-recovery-sei / analysis-reuse-level=0 / analysis-save-reuse-level=0 / analysis-load-reuse-level=0 / scale-factor=0 / refine-intra=0 / refine-inter=0 / refine-mv=1 / refine-ctu-distortion=0 / no-limit-sao / ctu-info=0 / no-lowpass-dct / refine-analysis-type=0 / copy-pic=1 / max-ausize-factor=1.0 / no-dynamic-refine / no-single-sei / no-hevc-aq / no-svt / no-field / qp-adaptation-range=1.00 / scenecut-aware-qp=0conformance-window-offsets / right=0 / bottom=0 / decoder-max-rate=0 / no-vbv-live-multi-pass
Default                        : Yes
Forced                         : No
Color range                    : Limited
Color primaries                : BT.709
Transfer characteristics       : BT.709
Matrix coefficients            : BT.709

Audio
ID                             : 2
Format                         : AC-3
Format/Info                    : Audio Coding 3
Commercial name                : Dolby Digital
Format settings                : Dolby Surround EX
Codec ID                       : A_AC3
Duration                       : 2 h 17 min
Bit rate mode                  : Constant
Bit rate                       : 640 kb/s
Channel(s)                     : 6 channels
Channel layout                 : L R C LFE Ls Rs
Sampling rate                  : 48.0 kHz
Frame rate                     : 31.250 FPS (1536 SPF)
Compression mode               : Lossy
Stream size                    : 627 MiB (12%)
Title                          : Dolby Digital 5.1
Language                       : English
Service kind                   : Complete Main
Default                        : Yes
Forced                         : No

Text #1
ID                             : 3
Format                         : PGS
Muxing mode                    : zlib
Codec ID                       : S_HDMV/PGS
Codec ID/Info                  : Picture based subtitle format used on BDs/HD-DVDs
Duration                       : 39 min 25 s
Bit rate                       : 284 b/s
Frame rate                     : 0.014 FPS
Count of elements              : 34
Stream size                    : 82.3 KiB (0%)
Language                       : English
Default                        : Yes
Forced                         : Yes

Text #2
ID                             : 4
Format                         : PGS
Muxing mode                    : zlib
Codec ID                       : S_HDMV/PGS
Codec ID/Info                  : Picture based subtitle format used on BDs/HD-DVDs
Duration                       : 2 h 13 min
Bit rate                       : 44.1 kb/s
Frame rate                     : 0.478 FPS
Count of elements              : 3827
Stream size                    : 42.1 MiB (1%)
Language                       : English
Default                        : No
Forced                         : No

Text #3
ID                             : 5
Format                         : PGS
Muxing mode                    : zlib
Codec ID                       : S_HDMV/PGS
Codec ID/Info                  : Picture based subtitle format used on BDs/HD-DVDs
Duration                       : 2 h 8 min
Bit rate                       : 36.2 kb/s
Frame rate                     : 0.396 FPS
Count of elements              : 3052
Stream size                    : 33.3 MiB (1%)
Language                       : Spanish
Default                        : No
Forced                         : No

  User comments    Sort newest first

评论