大买卖The.Score.2001.1080p.BluRay.HEVC.DTS-HD.MA.5.1.x265-PANAM

2024-02-11 08:15 0 22 3
【中文片名】: 大买卖
【片名】: The.Score.2001.1080p.BluRay.HEVC.DTS-HD.MA.5.1.x265-PANAM
【又名】: 鬼计神偷
【格式】: 1080P
【国家】: 美国 / 德国
【影片类型】: 动作 / 惊悚 / 犯罪
【主演】: 马龙·白兰度 / Edward Norton / Lem Dobbs / Robert De Niro / 弗兰克·奥兹 / 安吉拉·贝塞特 / 卡里奥·塞勒姆 / 加利·法梅尔
【时长】: 124 分钟
【上映时间】: 2001-07-09
【评分】: 6.9 6.9
【文件大小】: 5770
【剧情介绍】: 点击查看

您所在用户组暂时无法直接查看隐藏内容,请登陆后重试!!!

内容简介

An aging thief hopes to retire and live off his ill-gotten wealth with his lover when a young kid convinces him into doing one last heist that comes with a large payout.

Director
Frank Oz
Writers
Daniel E. Taylor Kario Salem Lem Dobbs
Stars
Robert De Niro Edward Norton Marlon Brando











General
Unique ID                                : 53379363092528563599560674798857654731 (0x28287DCB07584142A148648DC14891CB)
Complete name                            : The.Score.2001.1080p.BluRay.HEVC.DTS-HD.MA.5.1.x265-PANAM.mkv
Format                                   : Matroska
Format version                           : Version 4
File size                                : 5.77 GiB
Duration                                 : 2 h 4 min
Overall bit rate mode                    : Variable
Overall bit rate                         : 6 657 kb/s
Frame rate                               : 23.976 FPS
Encoded date                             : 2024-02-10 20:41:20 UTC
Writing application                      : Lavf60.20.100
Writing library                          : Lavf60.20.100
ErrorDetectionType                       : Per level 1

Video
ID                                       : 1
Format                                   : HEVC
Format/Info                              : High Efficiency Video Coding
Format profile                           : Main@L4@Main
Codec ID                                 : V_MPEGH/ISO/HEVC
Duration                                 : 2 h 4 min
Width                                    : 1 920 pixels
Height                                   : 1 080 pixels
Display aspect ratio                     : 16:9
Frame rate mode                          : Constant
Frame rate                               : 23.976 (24000/1001) FPS
Color space                              : YUV
Chroma subsampling                       : 4:2:0 (Type 0)
Bit depth                                : 8 bits
Writing library                          : x265 3.5+113-5f066dd2d:[Windows][GCC 13.2.0][64 bit] 8bit+10bit+12bit
Encoding settings                        : cpuid=1111039 / frame-threads=4 / numa-pools=24 / wpp / no-pmode / no-pme / no-psnr / no-ssim / log-level=2 / input-csp=1 / input-res=1920x1080 / interlace=0 / total-frames=0 / level-idc=0 / high-tier=1 / uhd-bd=0 / ref=1 / no-allow-non-conformance / no-repeat-headers / annexb / no-aud / no-eob / no-eos / no-hrd / info / hash=0 / temporal-layers=0 / open-gop / min-keyint=23 / keyint=250 / gop-lookahead=0 / bframes=3 / b-adapt=0 / b-pyramid / bframe-bias=0 / rc-lookahead=10 / lookahead-slices=6 / scenecut=40 / no-hist-scenecut / radl=0 / no-splice / no-intra-refresh / ctu=32 / min-cu-size=8 / no-rect / no-amp / max-tu-size=32 / tu-inter-depth=1 / tu-intra-depth=1 / limit-tu=0 / rdoq-level=0 / dynamic-rd=0.00 / no-ssim-rd / signhide / no-tskip / nr-intra=0 / nr-inter=0 / no-constrained-intra / strong-intra-smoothing / max-merge=2 / limit-refs=0 / no-limit-modes / me=1 / subme=1 / merange=57 / temporal-mvp / no-frame-dup / no-hme / no-weightp / no-weightb / no-analyze-src-pics / deblock=0:0 / no-sao / no-sao-non-deblock / rd=2 / selective-sao=0 / early-skip / rskip / fast-intra / no-tskip-fast / no-cu-lossless / no-b-intra / no-splitrd-skip / rdpenalty=0 / psy-rd=2.00 / psy-rdoq=0.00 / no-rd-refine / no-lossless / cbqpoffs=0 / crqpoffs=0 / rc=abr / bitrate=2398 / qcomp=0.60 / qpstep=4 / stats-write=0 / stats-read=0 / ipratio=1.40 / pbratio=1.30 / aq-mode=1 / aq-strength=0.00 / cutree / zone-count=0 / no-strict-cbr / qg-size=32 / no-rc-grain / qpmax=69 / qpmin=0 / no-const-vbv / sar=1 / overscan=0 / videoformat=5 / range=0 / colorprim=1 / transfer=1 / colormatrix=1 / chromaloc=1 / chromaloc-top=0 / chromaloc-bottom=0 / display-window=0 / cll=0,0 / min-luma=0 / max-luma=255 / log2-max-poc-lsb=8 / vui-timing-info / vui-hrd-info / slices=1 / no-opt-qp-pps / no-opt-ref-list-length-pps / no-multi-pass-opt-rps / scenecut-bias=0.05 / no-opt-cu-delta-qp / no-aq-motion / no-hdr10 / no-hdr10-opt / no-dhdr10-opt / no-idr-recovery-sei / analysis-reuse-level=0 / analysis-save-reuse-level=0 / analysis-load-reuse-level=0 / scale-factor=0 / refine-intra=0 / refine-inter=0 / refine-mv=1 / refine-ctu-distortion=0 / no-limit-sao / ctu-info=0 / no-lowpass-dct / refine-analysis-type=0 / copy-pic=1 / max-ausize-factor=1.0 / no-dynamic-refine / no-single-sei / no-hevc-aq / no-svt / no-field / qp-adaptation-range=1.00 / scenecut-aware-qp=0conformance-window-offsets / right=0 / bottom=0 / decoder-max-rate=0 / no-vbv-live-multi-pass / no-mcstf / no-sbrc
Language                                 : English
Default                                  : No
Forced                                   : No
Color range                              : Limited
Color primaries                          : BT.709
Transfer characteristics                 : BT.709
Matrix coefficients                      : BT.709
Statistics Tags Issue                    : MakeMKV v1.17.6 win(x64-release) 2024-02-10 20:31:11 / Lavf60.20.100 2024-02-10 20:41:20
FromStats_BitRate                        : 18476278
FromStats_Duration                       : 02:04:01.851000000
FromStats_FrameCount                     : 178426
FromStats_OriginalSourceMedium_ID        : 001011
FromStats_StreamSize                     : 17187214192

Audio #1
ID                                       : 2
Format                                   : PCM
Format settings                          : Little / Signed
Codec ID                                 : A_PCM/INT/LIT
Duration                                 : 2 h 4 min
Bit rate mode                            : Constant
Bit rate                                 : 1 536 kb/s
Channel(s)                               : 2 channels
Sampling rate                            : 48.0 kHz
Bit depth                                : 16 bits
Stream size                              : 1.33 GiB (23%)
Title                                    : Stereo
Language                                 : English
Default                                  : Yes
Forced                                   : No
Statistics Tags Issue                    : MakeMKV v1.17.6 win(x64-release) 2024-02-10 20:31:11 / Lavf60.20.100 2024-02-10 20:41:20
FromStats_BitRate                        : 1536000
FromStats_Duration                       : 02:04:02.000000000
FromStats_FrameCount                     : 223260
FromStats_OriginalSourceMedium_ID        : 001100
FromStats_StreamSize                     : 1428862080

Audio #2
ID                                       : 3
Format                                   : DTS XLL
Format/Info                              : Digital Theater Systems
Commercial name                          : DTS-HD Master Audio
Codec ID                                 : A_DTS
Duration                                 : 2 h 4 min
Bit rate mode                            : Variable
Channel(s)                               : 6 channels
Channel layout                           : C L R Ls Rs LFE
Sampling rate                            : 48.0 kHz
Frame rate                               : 93.750 FPS (512 SPF)
Bit depth                                : 16 bits
Compression mode                         : Lossless
Title                                    : Surround 5.1
Language                                 : English
Default                                  : No
Forced                                   : No
Statistics Tags Issue                    : MakeMKV v1.17.6 win(x64-release) 2024-02-10 20:31:11 / Lavf60.20.100 2024-02-10 20:41:20
FromStats_BitRate                        : 1873031
FromStats_Duration                       : 02:04:01.971000000
FromStats_FrameCount                     : 697685
FromStats_OriginalSourceMedium_ID        : 001101
FromStats_StreamSize                     : 1742381544

Audio #3
ID                                       : 4
Format                                   : DTS
Format/Info                              : Digital Theater Systems
Codec ID                                 : A_DTS
Duration                                 : 2 h 4 min
Bit rate mode                            : Constant
Bit rate                                 : 768 kb/s
Channel(s)                               : 6 channels
Channel layout                           : C L R Ls Rs LFE
Sampling rate                            : 48.0 kHz
Frame rate                               : 93.750 FPS (512 SPF)
Bit depth                                : 16 bits
Compression mode                         : Lossy
Stream size                              : 681 MiB (12%)
Title                                    : Surround 5.1
Language                                 : English
Default                                  : No
Forced                                   : No
Statistics Tags Issue                    : MakeMKV v1.17.6 win(x64-release) 2024-02-10 20:31:11 / Lavf60.20.100 2024-02-10 20:41:20
FromStats_BitRate                        : 768000
FromStats_Duration                       : 02:04:01.982000000
FromStats_FrameCount                     : 697686
FromStats_OriginalSourceMedium_ID        : 001101
FromStats_StreamSize                     : 714430464



  User comments    Sort newest first

评论