Rascal.Does.Not.Dream.of.a.Dreaming.Girl.2019.1080p.BluRay.X264-iNSPiRE

2024-02-11 15:57 0 46 3
【中文片名】:
【片名】: Rascal.Does.Not.Dream.of.a.Dreaming.Girl.2019.1080p.BluRay.X264-iNSPiRE
【又名】: 青春期笨蛋不会梦到怀梦美少女,青春笨蛋少年不做怀梦美少女的梦,青春猪头少年不会梦到怀梦美少女,Rascal Does Not Dream of a Dreaming Girl
【格式】: 1080P
【国家】: 日本
【影片类型】: 剧情 / 爱情 / 动画
【主演】: 横谷昌宏 / 石川界人 / 水濑祈 / 内田真礼 / 濑户麻沙美 / 种崎敦美 / 佐藤聪美 / 东山奈央 / 内田雄马 / 福西胜也 / 志村知幸 / 增井壮一 / 鸭志田一 / 久保由利香 / 相川奈都姬 / 奈波果林 / 柚木尚子 / 内野孝聪 / 内村史子 / 影山灯
【时长】: 90分钟
【上映时间】: 2019-06-15(日本) / 2019-09-27(台湾)
【评分】: 0 8.8
【文件大小】: 5470
【剧情介绍】: 点击查看

您所在用户组暂时无法直接查看隐藏内容,请登陆后重试!!!

内容简介




MediaInfo
Video
ID : 1
Format : AVC
Format/Info : Advanced Video Codec
Format profile : High@L4.1
Format settings : CABAC / 4 Ref Frames
Format settings, CABAC : Yes
Format settings, Reference : 4 frames
Codec ID : V_MPEG4/ISO/AVC
Duration : 1 h 29 min
Bit rate : 8 055 kb/s
Width : 1 920 pixels
Height : 1 080 pixels
Display aspect ratio : 16:9
Frame rate mode : Constant
Frame rate : 23.976 (24000/1001) FPS
Color space : YUV
Chroma subsampling : 4:2:0
Bit depth : 8 bits
Scan type : Progressive
Bits/(Pixel*Frame) : 0.162
Stream size : 5.06 GiB (93%)
Writing library : x264 core 157 r2935 545de2f
Encoding settings : cabac=1 / ref=4 / deblock=1:0:0 / analyse=0x3:0x133 / me=umh / subme=7 / psy=1 / psy_rd=1.00:0.00 / mixed_ref=1 / me_range=16 / chroma_me=1 / trellis=1 / 8x8dct=1 / cqm=0 / deadzone=21,11 / fast_pskip=0 / chroma_qp_offset=-2 / threads=18 / lookahead_threads=3 / sliced_threads=0 / nr=0 / decimate=1 / interlaced=0 / bluray_compat=0 / constrained_intra=0 / bframes=3 / b_pyramid=2 / b_adapt=1 / b_bias=0 / direct=1 / weightb=1 / open_gop=0 / weightp=2 / keyint=250 / keyint_min=23 / scenecut=40 / intra_refresh=0 / rc_lookahead=40 / rc=2pass / mbtree=1 / bitrate=8055 / ratetol=1.0 / qcomp=0.60 / qpmin=0 / qpmax=69 / qpstep=4 / cplxblur=20.0 / qblur=0.5 / ip_ratio=1.40 / aq=1:1.00
Language : Japanese
Default : Yes
Forced : No

Audio
ID : 2
Format : AC-3
Format/Info : Audio Coding 3
Commercial name : Dolby Digital
Codec ID : A_AC3
Duration : 1 h 29 min
Bit rate mode : Constant
Bit rate : 640 kb/s
Channel(s) : 2 channels
Channel layout : L R
Sampling rate : 48.0 kHz
Frame rate : 31.250 FPS (1536 SPF)
Compression mode : Lossy
Stream size : 412 MiB (7%)
Language : Japanese
Service kind : Complete Main
Default : Yes
Forced : No

Subtitle
English (not embedded)

评论