心灵捕手Good Will Hunting 1997 1080p BluRay DD 5.1 x265-edge2020

2024-04-15 08:40 0 30 1
【中文片名】: 心灵捕手
【片名】: Good Will Hunting 1997 1080p BluRay DD 5.1 x265-edge2020
【又名】: 骄阳似我(港)
【格式】: 1080P
【国家】: 美国
【影片类型】: 剧情
【主演】: 明妮·德里弗 / 本·阿弗莱克 / 科尔·豪瑟 / 罗宾·威廉姆斯 / 马特·达蒙 / 格斯·范·桑特 / 卡西·阿弗莱克 / 斯特兰·斯卡斯加德
【时长】: 126 分钟
【上映时间】: 1998-01-09
【评分】: 8.3 8.6
【文件大小】: 6970
【剧情介绍】: 点击查看

您所在用户组暂时无法直接查看隐藏内容,请登陆后重试!!!

内容简介

Shrek.Forever.After.2010.1080p.WEB-DL.ENG.LATINO.DDP.5.1.H264-BEN.THE.MEN

https://www.youtube.com/watch?v=u7__TG7swg0

https://www.imdb.com/title/tt0892791/

Rumpelstiltskin tricks a mid-life crisis burdened Shrek into allowing himself to be erased from existence and cast in a dark alternate timeline where Rumpelstiltskin rules supreme.

ENG ESP SUBS






Format                                   : Matroska
Format version                           : Version 4
File size                                : 3.98 GiB
Duration                                 : 1 h 39 min
Overall bit rate                         : 5 710 kb/s
Frame rate                               : 23.976 FPS
Movie name                               : Shrek.Forever.After.2010.1080p.WEB-DL[Ben The Men]
Encoded date                             : 2024-04-14 15:18:58 UTC
Writing application                      : mkvmerge v83.0 ('Circle Of Friends') 64-bit
Writing library                          : libebml v1.4.5 + libmatroska v1.7.1

Video
ID                                       : 1
Format                                   : AVC
Format/Info                              : Advanced Video Codec
Format profile                           : High@L4
Format settings                          : CABAC / 4 Ref Frames
Format settings, CABAC                   : Yes
Format settings, Reference frames        : 4 frames
Codec ID                                 : V_MPEG4/ISO/AVC
Duration                                 : 1 h 39 min
Bit rate                                 : 4 428 kb/s
Width                                    : 1 920 pixels
Height                                   : 816 pixels
Display aspect ratio                     : 2.35:1
Frame rate mode                          : Constant
Frame rate                               : 23.976 (24000/1001) FPS
Color space                              : YUV
Chroma subsampling                       : 4:2:0
Bit depth                                : 8 bits
Scan type                                : Progressive
Bits/(Pixel*Frame)                       : 0.118
Stream size                              : 3.09 GiB (78%)
Title                                    : BEN.THE.MEN
Language                                 : English
Default                                  : Yes
Forced                                   : No
Color range                              : Limited
Color primaries                          : BT.709
Transfer characteristics                 : BT.709
Matrix coefficients                      : BT.709

Audio #1
ID                                       : 2
Format                                   : E-AC-3
Format/Info                              : Enhanced AC-3
Commercial name                          : Dolby Digital Plus
Codec ID                                 : A_EAC3
Duration                                 : 1 h 39 min
Bit rate mode                            : Constant
Bit rate                                 : 640 kb/s
Channel(s)                               : 6 channels
Channel layout                           : L R C LFE Ls Rs
Sampling rate                            : 48.0 kHz
Frame rate                               : 31.250 FPS (1536 SPF)
Compression mode                         : Lossy
Stream size                              : 457 MiB (11%)
Title                                    : BTM DDP5.1
Language                                 : English
Service kind                             : Complete Main
Default                                  : No
Forced                                   : No

Audio #2
ID                                       : 3
Format                                   : E-AC-3
Format/Info                              : Enhanced AC-3
Commercial name                          : Dolby Digital Plus
Codec ID                                 : A_EAC3
Duration                                 : 1 h 39 min
Bit rate mode                            : Constant
Bit rate                                 : 640 kb/s
Channel(s)                               : 6 channels
Channel layout                           : L R C LFE Ls Rs
Sampling rate                            : 48.0 kHz
Frame rate                               : 31.250 FPS (1536 SPF)
Compression mode                         : Lossy
Stream size                              : 457 MiB (11%)
Title                                    : BTM DDP5.1
Language                                 : Spanish
Service kind                             : Complete Main
Default                                  : Yes
Forced                                   : Yes
  User comments    Sort newest first atOptions = {'key' : '59354b0c63c60cd2098244312b6753ed','format' : 'iframe','height' : 50,'width' : 320,'params' : {}};document.write('');

评论