Jinnah.1998.1080p.BluRay.REMUX.AVC.DTS-HD.MA.2.0.DD5.1.CUSTOM-Asmo

2024-06-11 17:26 0 35 1
【中文片名】:
【片名】: Jinnah.1998.1080p.BluRay.REMUX.AVC.DTS-HD.MA.2.0.DD5.1.CUSTOM-Asmo
【又名】:
【格式】: 1080P
【国家】: 英国
【影片类型】: 剧情 / 战争 / 传记
【主演】: Christopher Lee / 詹姆斯·福克斯 / Jamil Dehlavi / 理查德·林特恩 / Akbar Ahmed / Maria Aitken / Shashi Kapoor
【时长】: 110 分钟
【上映时间】: 1998
【评分】: 0 0
【文件大小】: 23290
【剧情介绍】: 点击查看

您所在用户组暂时无法直接查看隐藏内容,请登陆后重试!!!

内容简介

Jinnah.1998.1080p.BluRay.REMUX.AVC.DTS-HD.MA.2.0.DD5.1.CUSTOM-Asmo

Stream #0:0(eng): Video: h264 (High), yuv420p(tv, bt709, progressive), 1920x1080 [SAR 1:1 DAR 16:9], 24 fps, 24 tbr, 1k tbn, 48 tbc (default)
Stream #0:1(eng): Audio: dts (DTS-HD MA), 48000 Hz, stereo, s16p (default) (oryginal)
Stream #0:2(eng): Audio: ac3, 48000 Hz, 5.1(side), fltp, 448 kb/s (5.1 custom)
Stream #0:3(rus): Audio: dts (DTS-HD MA), 48000 Hz, stereo, s16p
Stream #0:4(eng): Subtitle: hdmv_pgs_subtitle (full)
Stream #0:5(eng): Subtitle: hdmv_pgs_subtitle (sdh)
Stream #0:6(rus): Subtitle: hdmv_pgs_subtitle (full)


  User comments    Sort newest first atOptions = {'key' : '59354b0c63c60cd2098244312b6753ed','format' : 'iframe','height' : 50,'width' : 320,'params' : {}};document.write('');

评论