街头之王Street.Kings.(2008).1080p.BluRay.REMUX.AVC.DTS-HD.MA5.1-Z@X

2024-06-21 02:23 0 51 2
【中文片名】: 街头之王
【片名】: Street.Kings.(2008).1080p.BluRay.REMUX.AVC.DTS-HD.MA5.1-Z@X
【又名】: 正义悍将(台)
【格式】: 1080P
【国家】: 美国
【影片类型】: 剧情 / 动作 / 惊悚 / 犯罪
【主演】: 塞德里克·凯尔斯 / 福里斯特·惠特克 / 克里斯·埃文斯 / 詹姆斯·艾罗瑞 / 休·劳瑞 / 诺尔·古格雷米 / 科特·维莫 / 基努·李维斯 / 泰瑞·克鲁斯 / 娜奥米·哈里斯 / 杰·摩尔 / 大卫·艾亚 / 阿莫里·诺拉斯科 / 玛莎·希加瑞达 / Jamie Moss / 科曼 / 约翰·考伯特 / Cle Shaheed Sloan
【时长】: 109 分钟
【上映时间】: 2008-04-11
【评分】: 6.8 6.5
【文件大小】: 25920
【剧情介绍】: 点击查看

您所在用户组暂时无法直接查看隐藏内容,请登陆后重试!!!

内容简介

Street.Kings.(2008).1080p.BluRay.REMUX.AVC.DTS-HD.MA5.1-Z@X

IMDB - https://www.imdb.com/title/tt0421073/

-----------------------------------------------------------------------------------
GENERAL INFO

Genre: Action | Crime | Thriller

Director: David Ayer

Stars:  Keanu Reeves, Forest Whitaker, Hugh Laurie, Chris Evans

Plot: Tom Ludlow is a veteran LAPD cop who finds life difficult to navigate after the death of his wife. When evidence implicates him in the execution of a fellow officer, he is forced to go up against the cop culture he's been a part of his entire career, ultimately leading him to question the loyalties of everyone around him.

-----------------------------------------------------------------------------------
COVER



-----------------------------------------------------------------------------------
SCREENSHOTS










-----------------------------------------------------------------------------------
MEDIAINFO

General
Unique ID                                : 124722988367175018770874460821591427097 (0x5DD4C618154BFA1C85B66587B9FC0819)
Complete name                            : Street.Kings.(2008).1080p.BluRay.REMUX.AVC.DTS-HD.MA5.1-Z@X.mkv
Format                                   : Matroska
Format version                           : Version 4
File size                                : 25.9 GiB
Duration                                 : 3 h 37 min
Overall bit rate mode                    : Variable
Overall bit rate                         : 17.0 Mb/s
Frame rate                               : 23.976 FPS
Movie name                               : Street Kings (2008)
Encoded date                             : 2024-06-20 17:26:00 UTC
Writing application                      : mkvmerge v85.0 ('Shame For You') 64-bit
Writing library                          : libebml v1.4.5 + libmatroska v1.7.1
Cover                                    : Yes
Attachments                              : cover.jpg

Video
ID                                       : 1
Format                                   : AVC
Format/Info                              : Advanced Video Codec
Format profile                           : High@L4.1
Format settings                          : CABAC / 4 Ref Frames
Format settings, CABAC                   : Yes
Format settings, Reference frames        : 4 frames
Format settings, Slice count             : 4 slices per frame
Codec ID                                 : V_MPEG4/ISO/AVC
Duration                                 : 1 h 48 min
Bit rate mode                            : Variable
Bit rate                                 : 30.1 Mb/s
Maximum bit rate                         : 33.2 Mb/s
Width                                    : 1 920 pixels
Height                                   : 1 080 pixels
Display aspect ratio                     : 16:9
Frame rate mode                          : Constant
Frame rate                               : 23.976 (24000/1001) FPS
Color space                              : YUV
Chroma subsampling                       : 4:2:0
Bit depth                                : 8 bits
Scan type                                : Progressive
Bits/(Pixel*Frame)                       : 0.605
Stream size                              : 22.8 GiB (88%)
Title                                    : HSaber <--> Z@X
Default                                  : Yes
Forced                                   : No
Color range                              : Limited
Color primaries                          : BT.709
Transfer characteristics                 : BT.709
Matrix coefficients                      : BT.709

Audio
ID                                       : 2
Format                                   : DTS XBR
Format/Info                              : Digital Theater Systems
Commercial name                          : DTS-HD High Resolution Audio
Codec ID                                 : A_DTS
Duration                                 : 3 h 37 min
Bit rate mode                            : Constant
Bit rate                                 : 3 018 kb/s
Channel(s)                               : 6 channels
Channel layout                           : C L R Ls Rs LFE
Sampling rate                            : 48.0 kHz
Frame rate                               : 93.750 FPS (512 SPF)
Bit depth                                : 24 bits
Compression mode                         : Lossy
Stream size                              : 2.88 GiB (11%)
Title                                    : DTS-HD MA 5.1
Language                                 : English
Default                                  : Yes
Forced                                   : No

Text #1
ID                                       : 3
Format                                   : PGS
Muxing mode                              : zlib
Codec ID                                 : S_HDMV/PGS
Codec ID/Info                            : Picture based subtitle format used on BDs/HD-DVDs
Duration                                 : 1 h 39 min
Bit rate                                 : 21.4 kb/s
Frame rate                               : 0.448 FPS
Count of elements                        : 2668
Stream size                              : 15.2 MiB (0%)
Language                                 : Arabic
Default                                  : Yes
Forced                                   : No

Text #2
ID                                       : 4
Format                                   : PGS
Muxing mode                              : zlib
Codec ID                                 : S_HDMV/PGS
Codec ID/Info                            : Picture based subtitle format used on BDs/HD-DVDs
Duration                                 : 1 h 39 min
Bit rate                                 : 37.9 kb/s
Frame rate                               : 0.448 FPS
Count of elements                        : 2668
Stream size                              : 26.9 MiB (0%)
Language                                 : Bulgarian
Default                                  : Yes
Forced                                   : No

Text #3
ID                                       : 5
Format                                   : PGS
Muxing mode                              : zlib
Codec ID                                 : S_HDMV/PGS
Codec ID/Info                            : Picture based subtitle format used on BDs/HD-DVDs
Duration                                 : 1 h 41 min
Bit rate                                 : 35.6 kb/s
Frame rate                               : 0.439 FPS
Count of elements                        : 2670
Stream size                              : 25.8 MiB (0%)
Language                                 : Croatian
Default                                  : Yes
Forced                                   : No

Text #4
ID                                       : 6
Format                                   : PGS
Muxing mode                              : zlib
Codec ID                                 : S_HDMV/PGS
Codec ID/Info                            : Picture based subtitle format used on BDs/HD-DVDs
Duration                                 : 1 h 39 min
Bit rate                                 : 35.2 kb/s
Frame rate                               : 0.448 FPS
Count of elements                        : 2668
Stream size                              : 25.0 MiB (0%)
Language                                 : Czech
Default                                  : Yes
Forced                                   : No

Text #5
ID                                       : 7
Format                                   : PGS
Muxing mode                              : zlib
Codec ID                                 : S_HDMV/PGS
Codec ID/Info                            : Picture based subtitle format used on BDs/HD-DVDs
Duration                                 : 1 h 39 min
Bit rate                                 : 31.9 kb/s
Frame rate                               : 0.448 FPS
Count of elements                        : 2668
Stream size                              : 22.7 MiB (0%)
Language                                 : Dutch
Default                                  : Yes
Forced                                   : No

Text #6
ID                                       : 8
Format                                   : PGS
Muxing mode                              : zlib
Codec ID                                 : S_HDMV/PGS
Codec ID/Info                            : Picture based subtitle format used on BDs/HD-DVDs
Duration                                 : 1 h 38 min
Bit rate                                 : 41.3 kb/s
Frame rate                               : 0.449 FPS
Count of elements                        : 2646
Stream size                              : 29.0 MiB (0%)
Language                                 : English
Default                                  : Yes
Forced                                   : No

Text #7
ID                                       : 9
Format                                   : PGS
Muxing mode                              : zlib
Codec ID                                 : S_HDMV/PGS
Codec ID/Info                            : Picture based subtitle format used on BDs/HD-DVDs
Duration                                 : 1 h 39 min
Bit rate                                 : 33.3 kb/s
Frame rate                               : 0.448 FPS
Count of elements                        : 2668
Stream size                              : 23.6 MiB (0%)
Language                                 : Estonian
Default                                  : Yes
Forced                                   : No

Text #8
ID                                       : 10
Format                                   : PGS
Muxing mode                              : zlib
Codec ID                                 : S_HDMV/PGS
Codec ID/Info                            : Picture based subtitle format used on BDs/HD-DVDs
Duration                                 : 1 h 39 min
Bit rate                                 : 31.8 kb/s
Frame rate                               : 0.446 FPS
Count of elements                        : 2668
Stream size                              : 22.7 MiB (0%)
Language                                 : French
Default                                  : Yes
Forced                                   : No

Text #9
ID                                       : 11
Format                                   : PGS
Muxing mode                              : zlib
Codec ID                                 : S_HDMV/PGS
Codec ID/Info                            : Picture based subtitle format used on BDs/HD-DVDs
Duration                                 : 1 h 39 min
Bit rate                                 : 38.4 kb/s
Frame rate                               : 0.446 FPS
Count of elements                        : 2656
Stream size                              : 27.3 MiB (0%)
Language                                 : German
Default                                  : Yes
Forced                                   : No

Text #10
ID                                       : 12
Format                                   : PGS
Muxing mode                              : zlib
Codec ID                                 : S_HDMV/PGS
Codec ID/Info                            : Picture based subtitle format used on BDs/HD-DVDs
Duration                                 : 1 h 41 min
Bit rate                                 : 33.8 kb/s
Frame rate                               : 0.439 FPS
Count of elements                        : 2670
Stream size                              : 24.5 MiB (0%)
Language                                 : Greek
Default                                  : Yes
Forced                                   : No

Text #11
ID                                       : 13
Format                                   : PGS
Muxing mode                              : zlib
Codec ID                                 : S_HDMV/PGS
Codec ID/Info                            : Picture based subtitle format used on BDs/HD-DVDs
Duration                                 : 1 h 39 min
Bit rate                                 : 27.2 kb/s
Frame rate                               : 0.448 FPS
Count of elements                        : 2668
Stream size                              : 19.3 MiB (0%)
Language                                 : Hebrew
Default                                  : Yes
Forced                                   : No

Text #12
ID                                       : 14
Format                                   : PGS
Muxing mode                              : zlib
Codec ID                                 : S_HDMV/PGS
Codec ID/Info                            : Picture based subtitle format used on BDs/HD-DVDs
Duration                                 : 1 h 39 min
Bit rate                                 : 38.4 kb/s
Frame rate                               : 0.447 FPS
Count of elements                        : 2658
Stream size                              : 27.2 MiB (0%)
Language                                 : Hungarian
Default                                  : Yes
Forced                                   : No

Text #13
ID                                       : 15
Format                                   : PGS
Muxing mode                              : zlib
Codec ID                                 : S_HDMV/PGS
Codec ID/Info                            : Picture based subtitle format used on BDs/HD-DVDs
Duration                                 : 1 h 39 min
Bit rate                                 : 39.6 kb/s
Frame rate                               : 0.448 FPS
Count of elements                        : 2668
Stream size                              : 28.1 MiB (0%)
Language                                 : Icelandic
Default                                  : Yes
Forced                                   : No

Text #14
ID                                       : 16
Format                                   : PGS
Muxing mode                              : zlib
Codec ID                                 : S_HDMV/PGS
Codec ID/Info                            : Picture based subtitle format used on BDs/HD-DVDs
Duration                                 : 1 h 39 min
Bit rate                                 : 32.1 kb/s
Frame rate                               : 0.446 FPS
Count of elements                        : 2656
Stream size                              : 22.8 MiB (0%)
Language                                 : Latvian
Default                                  : Yes
Forced                                   : No

Text #15
ID                                       : 17
Format                                   : PGS
Muxing mode                              : zlib
Codec ID                                 : S_HDMV/PGS
Codec ID/Info                            : Picture based subtitle format used on BDs/HD-DVDs
Duration                                 : 1 h 39 min
Bit rate                                 : 31.6 kb/s
Frame rate                               : 0.448 FPS
Count of elements                        : 2668
Stream size                              : 22.4 MiB (0%)
Language                                 : Lithuanian
Default                                  : Yes
Forced                                   : No

Text #16
ID                                       : 18
Format                                   : PGS
Muxing mode                              : zlib
Codec ID                                 : S_HDMV/PGS
Codec ID/Info                            : Picture based subtitle format used on BDs/HD-DVDs
Duration                                 : 1 h 41 min
Bit rate                                 : 29.5 kb/s
Frame rate                               : 0.415 FPS
Count of elements                        : 2526
Stream size                              : 21.4 MiB (0%)
Language                                 : Polish
Default                                  : Yes
Forced                                   : No

Text #17
ID                                       : 19
Format                                   : PGS
Muxing mode                              : zlib
Codec ID                                 : S_HDMV/PGS
Codec ID/Info                            : Picture based subtitle format used on BDs/HD-DVDs
Duration                                 : 1 h 39 min
Bit rate                                 : 38.4 kb/s
Frame rate                               : 0.448 FPS
Count of elements                        : 2668
Stream size                              : 27.2 MiB (0%)
Language                                 : Portuguese
Default                                  : Yes
Forced                                   : No

Text #18
ID                                       : 20
Format                                   : PGS
Muxing mode                              : zlib
Codec ID                                 : S_HDMV/PGS
Codec ID/Info                            : Picture based subtitle format used on BDs/HD-DVDs
Duration                                 : 1 h 39 min
Bit rate                                 : 33.0 kb/s
Frame rate                               : 0.448 FPS
Count of elements                        : 2668
Stream size                              : 23.4 MiB (0%)
Language                                 : Romanian
Default                                  : Yes
Forced                                   : No

Text #19
ID                                       : 21
Format                                   : PGS
Muxing mode                              : zlib
Codec ID                                 : S_HDMV/PGS
Codec ID/Info                            : Picture based subtitle format used on BDs/HD-DVDs
Duration                                 : 1 h 39 min
Bit rate                                 : 37.8 kb/s
Frame rate                               : 0.448 FPS
Count of elements                        : 2668
Stream size                              : 26.8 MiB (0%)
Language                                 : Russian
Default                                  : Yes
Forced                                   : No

Text #20
ID                                       : 22
Format                                   : PGS
Muxing mode                              : zlib
Codec ID                                 : S_HDMV/PGS
Codec ID/Info                            : Picture based subtitle format used on BDs/HD-DVDs
Duration                                 : 1 h 39 min
Bit rate                                 : 35.5 kb/s
Frame rate                               : 0.448 FPS
Count of elements                        : 2668
Stream size                              : 25.2 MiB (0%)
Language                                 : Serbian
Default                                  : Yes
Forced                                   : No

Text #21
ID                                       : 23
Format                                   : PGS
Muxing mode                              : zlib
Codec ID                                 : S_HDMV/PGS
Codec ID/Info                            : Picture based subtitle format used on BDs/HD-DVDs
Duration                                 : 1 h 41 min
Bit rate                                 : 35.6 kb/s
Frame rate                               : 0.439 FPS
Count of elements                        : 2670
Stream size                              : 25.8 MiB (0%)
Language                                 : Slovenian
Default                                  : Yes
Forced                                   : No

Text #22
ID                                       : 24
Format                                   : PGS
Muxing mode                              : zlib
Codec ID                                 : S_HDMV/PGS
Codec ID/Info                            : Picture based subtitle format used on BDs/HD-DVDs
Duration                                 : 1 h 39 min
Bit rate                                 : 27.0 kb/s
Frame rate                               : 0.440 FPS
Count of elements                        : 2620
Stream size                              : 19.2 MiB (0%)
Language                                 : Spanish
Default                                  : Yes
Forced                                   : No

Text #23
ID                                       : 25
Format                                   : PGS
Muxing mode                              : zlib
Codec ID                                 : S_HDMV/PGS
Codec ID/Info                            : Picture based subtitle format used on BDs/HD-DVDs
Duration                                 : 1 h 41 min
Bit rate                                 : 34.3 kb/s
Frame rate                               : 0.437 FPS
Count of elements                        : 2662
Stream size                              : 24.9 MiB (0%)
Language                                 : Turkish
Default                                  : Yes
Forced                                   : No

Text #24
ID                                       : 26
Format                                   : PGS
Muxing mode                              : zlib
Codec ID                                 : S_HDMV/PGS
Codec ID/Info                            : Picture based subtitle format used on BDs/HD-DVDs
Duration                                 : 1 h 39 min
Bit rate                                 : 36.5 kb/s
Frame rate                               : 0.448 FPS
Count of elements                        : 2668
Stream size                              : 25.9 MiB (0%)
Language                                 : Ukrainian
Default                                  : Yes
Forced                                   : No

Menu
00:00:00.000                             : en:Chapter 1.1
00:04:02.367                             : en:Chapter 1.2
00:10:13.237                             : en:Chapter 1.3
00:14:47.136                             : en:Chapter 1.4
00:18:17.221                             : en:Chapter 1.5
00:21:22.197                             : en:Chapter 1.6
00:24:44.691                             : en:Chapter 1.7
00:28:44.973                             : en:Chapter 1.8
00:30:09.974                             : en:Chapter 1.9
00:34:25.980                             : en:Chapter 1.10
00:38:20.381                             : en:Chapter 1.11
00:41:17.516                             : en:Chapter 1.12
00:44:57.653                             : en:Chapter 1.13
00:47:09.284                             : en:Chapter 1.14
00:50:12.968                             : en:Chapter 1.15
00:54:22.550                             : en:Chapter 1.16
00:57:35.827                             : en:Chapter 1.17
01:00:36.299                             : en:Chapter 1.18
01:04:01.671                             : en:Chapter 1.19
01:07:32.673                             : en:Chapter 1.20
01:11:08.555                             : en:Chapter 1.21
01:15:26.688                             : en:Chapter 1.22
01:22:26.942                             : en:Chapter 1.23
01:28:34.809                             : en:Chapter 1.24
01:32:36.801                             : en:Chapter 1.25
01:35:54.582                             : en:Chapter 1.26
01:40:31.066                             : en:Chapter 1.27
01:42:49.163                             : en:Chapter 1.28


  User comments    Sort newest first atOptions = {'key' : '59354b0c63c60cd2098244312b6753ed','format' : 'iframe','height' : 50,'width' : 320,'params' : {}};document.write('');

评论