玉面煞星Johnny.Handsome.1989.1080p.BluRay.REMUX.AVC.DTS-HD.MA.2.0.DDP5.1.CUSTOM-Asmo

2024-06-23 22:24 0 24 1
【中文片名】: 玉面煞星
【片名】: Johnny.Handsome.1989.1080p.BluRay.REMUX.AVC.DTS-HD.MA.2.0.DDP5.1.CUSTOM-Asmo
【又名】:
【格式】: 1080P
【国家】: 美国
【影片类型】: 剧情 / 惊悚 / 犯罪
【主演】: 摩根·弗里曼 / 沃尔特·希尔 / 福里斯特·惠特克 / 米基·洛克 / 伊丽莎白·麦戈文 / 艾伦·巴金 / Ken Friedman
【时长】: 94 分钟
【上映时间】: 1989-09-12
【评分】: 6.1 6.4
【文件大小】: 16820
【剧情介绍】: 点击查看

您所在用户组暂时无法直接查看隐藏内容,请登陆后重试!!!

内容简介

Johnny.Handsome.1989.1080p.BluRay.REMUX.AVC.DTS-HD.MA.2.0.DDP5.1.CUSTOM-Asmo

Stream #0:0(eng): Video: h264 (High), yuv420p(tv, bt709, progressive), 1920x1080 [SAR 1:1 DAR 16:9], 23.98 fps, 23.98 tbr, 1k tbn, 47.95 tbc (default)
Stream #0:1(eng): Audio: dts (DTS-HD MA), 48000 Hz, stereo, s32p (24 bit) (default)
Stream #0:2(eng): Audio: eac3, 48000 Hz, 5.1(side), fltp, 768 kb/s (5.1 Custom)
Stream #0:3(rus): Audio: dts (DTS-HD MA), 48000 Hz, stereo, s32p (24 bit)
Stream #0:04(bos): Subtitle: hdmv_pgs_subtitle
Stream #0:05(bul): Subtitle: hdmv_pgs_subtitle
Stream #0:06(dan): Subtitle: hdmv_pgs_subtitle
Stream #0:07(eng): Subtitle: hdmv_pgs_subtitle
Stream #0:08(eng): Subtitle: hdmv_pgs_subtitle
Stream #0:09(fin): Subtitle: hdmv_pgs_subtitle
Stream #0:10(fre): Subtitle: hdmv_pgs_subtitle
Stream #0:11(ger): Subtitle: hdmv_pgs_subtitle
Stream #0:12(gre): Subtitle: hdmv_pgs_subtitle
Stream #0:13(hun): Subtitle: hdmv_pgs_subtitle
Stream #0:14(ita): Subtitle: hdmv_pgs_subtitle
Stream #0:15(pol): Subtitle: hdmv_pgs_subtitle
Stream #0:16(por): Subtitle: hdmv_pgs_subtitle
Stream #0:17(rum): Subtitle: hdmv_pgs_subtitle
Stream #0:18(rus): Subtitle: hdmv_pgs_subtitle
Stream #0:19(srp): Subtitle: hdmv_pgs_subtitle
Stream #0:20(slv): Subtitle: hdmv_pgs_subtitle
Stream #0:21(spa): Subtitle: hdmv_pgs_subtitle
Stream #0:22(tur): Subtitle: hdmv_pgs_subtitle


  User comments    Sort newest first atOptions = {'key' : '59354b0c63c60cd2098244312b6753ed','format' : 'iframe','height' : 50,'width' : 320,'params' : {}};document.write('');

评论