小镇幽浮Jules.2023.1080p.BluRay.REMUX.AVC.DTS-HD.MA.5.1-Asmo

2024-07-09 19:13 0 33 7
【中文片名】: 小镇幽浮
【片名】: Jules.2023.1080p.BluRay.REMUX.AVC.DTS-HD.MA.5.1-Asmo
【又名】: 朱尔斯,A Great Place to Call Home
【格式】: 1080P
【国家】: 美国
【影片类型】: 剧情 / 喜剧 / 科幻
【主演】: 本·金斯利 / 哈里特·桑塞姆·哈里斯 / 简·库丁 / 唐纳德·保罗 / 埃里克·米勒 / 加文·斯特克勒 / 马克·图特尔陶布 / 杰德·奎翁 / 佐伊·温特斯 / 安娜·乔治 / 玛丽娜·沙伊 / 科迪·科斯特罗 / 杰夫·基姆 / 布莱尔·贝克 / 奥比·梅瑞利利 / 泰迪·卡尼兹 / 戴维·卡尔 / 李·R·塞拉斯 / 约书亚·摩尔
【时长】: 87分钟
【上映时间】: 2023-03-22(索诺马国际电影节) / 2023-08-11(美国)
【评分】: 0 7.6
【文件大小】: 18170
【剧情介绍】: 点击查看

您所在用户组暂时无法直接查看隐藏内容,请登陆后重试!!!

内容简介

Jules.2023.1080p.BluRay.REMUX.AVC.DTS-HD.MA.5.1-Asmo

Stream #0:0(eng): Video: h264 (High), yuv420p(progressive), 1920x1080 [SAR 1:1 DAR 16:9], 23.98 fps, 23.98 tbr, 1k tbn, 47.95 tbc (default)
Stream #0:1(eng): Audio: dts (DTS-HD MA), 48000 Hz, 5.1(side), s32p (24 bit) (default)
Stream #0:2(rus): Audio: eac3, 48000 Hz, 5.1(side), fltp, 384 kb/s
Stream #0:3(cze): Subtitle: hdmv_pgs_subtitle
Stream #0:4(dan): Subtitle: hdmv_pgs_subtitle
Stream #0:5(dut): Subtitle: hdmv_pgs_subtitle
Stream #0:6(gre): Subtitle: hdmv_pgs_subtitle
Stream #0:7(eng): Subtitle: hdmv_pgs_subtitle
Stream #0:8(est): Subtitle: hdmv_pgs_subtitle
Stream #0:9(fin): Subtitle: hdmv_pgs_subtitle
Stream #0:10(fre): Subtitle: hdmv_pgs_subtitle
Stream #0:11(hrv): Subtitle: hdmv_pgs_subtitle
Stream #0:12(hun): Subtitle: hdmv_pgs_subtitle
Stream #0:13(ita): Subtitle: hdmv_pgs_subtitle
Stream #0:14(nor): Subtitle: hdmv_pgs_subtitle
Stream #0:15(pol): Subtitle: hdmv_pgs_subtitle
Stream #0:16(por): Subtitle: hdmv_pgs_subtitle
Stream #0:17(rum): Subtitle: hdmv_pgs_subtitle
Stream #0:18(rus): Subtitle: hdmv_pgs_subtitle
Stream #0:19(srp): Subtitle: hdmv_pgs_subtitle
Stream #0:20(slv): Subtitle: hdmv_pgs_subtitle
Stream #0:21(spa): Subtitle: hdmv_pgs_subtitle
Stream #0:22(swe): Subtitle: hdmv_pgs_subtitle
Stream #0:23(tur): Subtitle: hdmv_pgs_subtitle


  User comments    Sort newest first atOptions = {'key' : '59354b0c63c60cd2098244312b6753ed','format' : 'iframe','height' : 50,'width' : 320,'params' : {}};document.write('');

评论