战栗女人香The.Passion.of.Darkly.Noon.1995.1080p.BluRay.REMUX.AVC.DTS-HD.MA.5.1-Asmo

2024-07-10 06:00 0 28 3
【中文片名】: 战栗女人香
【片名】: The.Passion.of.Darkly.Noon.1995.1080p.BluRay.REMUX.AVC.DTS-HD.MA.5.1-Asmo
【又名】:
【格式】: 1080P
【国家】: 英国 / 德国 / 比利时
【影片类型】: 剧情 / 悬疑 / 惊悚
【主演】: 布兰登·费舍 / 菲利普·瑞德雷 / 艾什莉·贾德 / 维果·莫腾森 / 劳恩·迪恩 / 格蕾丝·扎布里斯基 / 洛乌·迈尔斯 / 若斯·德波夫 / Mel Cobb Mel Cobb / 嘉儿勒·宾德
【时长】: 100 分钟 / 95 分钟(德国) / 101 分钟(美国)
【上映时间】: 1995-05-19(戛纳电影节)
【评分】: 0 7.2
【文件大小】: 26670
【剧情介绍】: 点击查看

您所在用户组暂时无法直接查看隐藏内容,请登陆后重试!!!

内容简介

The.Passion.of.Darkly.Noon.1995.1080p.BluRay.REMUX.AVC.DTS-HD.MA.5.1-Asmo

Stream #0:0(eng): Video: h264 (High), yuv420p(tv, bt709, progressive), 1920x1080 [SAR 1:1 DAR 16:9], 23.98 fps, 23.98 tbr, 1k tbn, 47.95 tbc (default)
Stream #0:1(eng): Audio: dts (DTS-HD MA), 48000 Hz, 5.1(side), s32p (24 bit) (default)
Stream #0:2(rus): Audio: ac3, 48000 Hz, stereo, fltp, 192 kb/s
Stream #0:3(eng): Subtitle: hdmv_pgs_subtitle
Stream #0:4(eng): Subtitle: hdmv_pgs_subtitle
Stream #0:5(ita): Subtitle: hdmv_pgs_subtitle
Stream #0:6(pol): Subtitle: hdmv_pgs_subtitle
Stream #0:7(por): Subtitle: hdmv_pgs_subtitle
Stream #0:8(rus): Subtitle: hdmv_pgs_subtitle
Stream #0:9(spa): Subtitle: hdmv_pgs_subtitle
Stream #0:10(ukr): Subtitle: hdmv_pgs_subtitle


  User comments    Sort newest first atOptions = {'key' : '59354b0c63c60cd2098244312b6753ed','format' : 'iframe','height' : 50,'width' : 320,'params' : {}};document.write('');

评论