巴黎梦Gay.Purr-ee.1962.1080p.BluRay.Remux.AVC.FLAC.2.0-ReN

2024-07-10 10:50 0 24 2
【中文片名】: 巴黎梦
【片名】: Gay.Purr-ee.1962.1080p.BluRay.Remux.AVC.FLAC.2.0-ReN
【又名】:
【格式】: 1080P
【国家】: 美国
【影片类型】: 动画 / 歌舞 / 家庭
【主演】: 朱迪·加兰 / 莱德·巴顿斯 / 李香兰 / 梅尔·布兰科 / 琼·弗雷 / 瑟尔·莱文斯克洛福特 / 赫米奥妮‧金戈尔德 / 保罗·费斯 / 查克·琼斯 / 罗伯特·顾雷特 / 拉尔夫·赖特 / Morey Amsterdam Morey Amsterdam / 朱莉·本内特 / 桃乐茜·琼斯 / 埃布·勒维投 / Joan Gardner Joan Gardner
【时长】: 85 分钟
【上映时间】: 1962-12-05
【评分】: 0 0
【文件大小】: 21130
【剧情介绍】: 点击查看

您所在用户组暂时无法直接查看隐藏内容,请登陆后重试!!!

内容简介



General
Unique ID                                : 165379615596508103288342143482762867298 (0x7C6AF4943BA7D27D5E620E9D8F2BB262)
Complete name                            : Gay.Purr-ee.1962.1080p.BluRay.Remux.AVC.FLAC.2.0-ReN.mkv
Format                                   : Matroska
Format version                           : Version 4
File size                                : 21.1 GiB
Duration                                 : 1 h 24 min
Overall bit rate mode                    : Variable
Overall bit rate                         : 35.6 Mb/s
Frame rate                               : 23.976 FPS
Encoded date                             : 2023-11-03 06:48:12 UTC
Writing application                      : mkvmerge v80.0 ('Roundabout') 64-bit
Writing library                          : libebml v1.4.4 + libmatroska v1.7.1
IMDB                                     : tt0057093
TMDB                                     : movie/32328

Video
ID                                       : 1
Format                                   : AVC
Format/Info                              : Advanced Video Codec
Format profile                           : High@L4.1
Format settings                          : CABAC / 4 Ref Frames
Format settings, CABAC                   : Yes
Format settings, Reference frames        : 4 frames
Codec ID                                 : V_MPEG4/ISO/AVC
Duration                                 : 1 h 24 min
Bit rate mode                            : Variable
Bit rate                                 : 35.0 Mb/s
Maximum bit rate                         : 38.0 Mb/s
Width                                    : 1 920 pixels
Height                                   : 1 080 pixels
Display aspect ratio                     : 16:9
Frame rate mode                          : Constant
Frame rate                               : 23.976 (24000/1001) FPS
Color space                              : YUV
Chroma subsampling                       : 4:2:0
Bit depth                                : 8 bits
Scan type                                : Progressive
Bits/(Pixel*Frame)                       : 0.703
Stream size                              : 20.8 GiB (98%)
Title                                    : MPEG-4 AVC Video / 34887 kbps / 1080p / 23.976 fps / 16:9 / High Profile 4.1
Language                                 : English
Default                                  : Yes
Forced                                   : No

Audio
ID                                       : 2
Format                                   : FLAC
Format/Info                              : Free Lossless Audio Codec
Codec ID                                 : A_FLAC
Duration                                 : 1 h 24 min
Bit rate mode                            : Variable
Bit rate                                 : 595 kb/s
Channel(s)                               : 2 channels
Channel layout                           : L R
Sampling rate                            : 48.0 kHz
Frame rate                               : 11.719 FPS (4096 SPF)
Bit depth                                : 24 bits
Compression mode                         : Lossless
Stream size                              : 361 MiB (2%)
Title                                    : Dual Mono / FLAC Audio / 2.0 / 48 kHz / 595 kbps / 24-bit
Writing library                          : libFLAC 1.3.3 (2019-08-04)
Language                                 : English
Default                                  : Yes
Forced                                   : No
MD5 of the unencoded content             : 6B14B18AB22E05B5A35F876855435468

Text #1
ID                                       : 3
Format                                   : UTF-8
Codec ID                                 : S_TEXT/UTF8
Codec ID/Info                            : UTF-8 Plain Text
Duration                                 : 1 h 19 min
Bit rate                                 : 39 b/s
Frame rate                               : 0.127 FPS
Count of elements                        : 606
Stream size                              : 23.3 KiB (0%)
Title                                    : WEB
Language                                 : English
Default                                  : No
Forced                                   : No

Text #2
ID                                       : 4
Format                                   : PGS
Codec ID                                 : S_HDMV/PGS
Codec ID/Info                            : Picture based subtitle format used on BDs/HD-DVDs
Duration                                 : 1 h 24 min
Bit rate                                 : 41.7 kb/s
Frame rate                               : 0.489 FPS
Count of elements                        : 2482
Stream size                              : 25.3 MiB (0%)
Title                                    : SDH
Language                                 : English
Default                                  : No
Forced                                   : No

Menu
00:00:00.000                             : en:Chapter 01
00:00:02.044                             : en:Credits
00:03:21.535                             : en:Chapter 03
00:04:27.559                             : en:Mewsette
00:08:48.278                             : en:Chapter 05
00:10:52.318                             : en:Take My Hand, Paree
00:13:31.728                             : en:Mademoiselle Feline
00:17:53.364                             : en:The Road to Paris
00:21:11.520                             : en:Roses Red, Violets Blue
00:23:10.306                             : en:Meowrice
00:25:14.722                             : en:Hangers-on
00:27:28.230                             : en:Sister Dearest
00:30:21.361                             : en:The Money Cat
00:32:36.371                             : en:Doing the Town
00:37:51.811                             : en:The Horse Won't Talk
00:40:59.332                             : en:Cats for a Fee
00:44:35.798                             : en:Chapter 17
00:46:45.678                             : en:Bubbles
00:48:43.337                             : en:Shanghaied
00:50:55.219                             : en:Little Drops of Rain
00:53:20.239                             : en:Chapter 21
00:54:35.981                             : en:Portraits of Mewsette
00:59:01.163                             : en:Chapter 23
01:01:29.686                             : en:Escape
01:08:36.070                             : en:Klondike Cats
01:11:04.594                             : en:Paris Is a Lonely Town
01:14:50.319                             : en:On Her Tail
01:17:49.665                             : en:Chapter 28
01:19:30.015                             : en:Meowrice the Mouse
01:23:12.571                             : en:Mewsette Reprise
01:24:49.001                             : en:Chapter 31


  User comments    Sort newest first atOptions = {'key' : '59354b0c63c60cd2098244312b6753ed','format' : 'iframe','height' : 50,'width' : 320,'params' : {}};document.write('');

评论