加勒比海盗3:世界的尽头Pirates of the Caribbean 4 PACK 1080p DSNP WEB-DL DDP 5 1 H 264-PiRaTeS

2023-08-05 02:05 0 49 0
【中文片名】: 加勒比海盗3:世界的尽头
【片名】: Pirates of the Caribbean 4 PACK 1080p DSNP WEB-DL DDP 5 1 H 264-PiRaTeS
【又名】: 加勒比海盜:魔盜王终极之战(港)
【格式】: 1080P
【国家】: 美国
【影片类型】: 动作 / 冒险 / 奇幻
【主演】: 比尔·奈伊 / 杰弗里·拉什 / 凯拉·耐特丽 / Orlando Bloom / 特里·鲁西奥 / 周润发 / Johnny Depp / Ted Elliott / 戈尔·维宾斯基
【时长】: 169 分钟
【上映时间】: 2007-05-25(美国)
【评分】: 7.1 7.7
【文件大小】: 32140
【剧情介绍】: 点击查看

您所在用户组暂时无法直接查看隐藏内容,请登陆后重试!!!

内容简介

Adding Pirates.of.the.Caribbean.At.Worlds.End.2007.1080p.DSNP.WEB-DL.DDP.5.1.H.264-PiRaTeS.mkv
Adding Pirates.of.the.Caribbean.Dead.Mans.Chest.2006.1080p.DSNP.WEB-DL.DDP.5.1.H.264-PiRaTeS.mkv
Adding Pirates.of.the.Caribbean.On.Stranger.Tides.2011.1080p.DSNP.WEB-DL.DDP.5.1.H.264-PiRaTeS.mkv
Adding Pirates.of.the.Caribbean.The.Curse.of.the.Black.Pearl.2003.1080p.DSNP.WEB-DL.DDP.5.1.H.264-PiRaTeS.mkv
Complete name                            : /Pirates.of.the.Caribbean.At.Worlds.End.2007.1080p.DSNP.WEB-DL.DDP.5.1.H.264-PiRaTeS.mkv
Format                                   : Matroska
Format version                           : Version 4
File size                                : 8.89 GiB
Duration                                 : 2 h 48 min
Overall bit rate mode                    : Variable
Overall bit rate                         : 7 553 kb/s
Encoded date                             : UTC 2023-08-02 08:08:47
Writing application                      : mkvmerge v78.0 ('Running') 64-bit
Writing library                          : libebml v1.4.4 + libmatroska v1.7.1

Video
ID                                       : 1
Format                                   : AVC
Format/Info                              : Advanced Video Codec
Format profile                           : High@L4
Format settings                          : CABAC / 4 Ref Frames
Format settings, CABAC                   : Yes
Format settings, ReFrames                : 4 frames
Codec ID                                 : V_MPEG4/ISO/AVC
Duration                                 : 2 h 48 min
Bit rate mode                            : Variable
Bit rate                                 : 7 295 kb/s
Maximum bit rate                         : 12.7 Mb/s
Width                                    : 1 920 pixels
Height                                   : 1 080 pixels
Display aspect ratio                     : 16:9
Frame rate mode                          : Constant
Frame rate                               : 23.976 (24000/1001) FPS
Color space                              : YUV
Chroma subsampling                       : 4:2:0
Bit depth                                : 8 bits
Scan type                                : Progressive
Bits/(Pixel*Frame)                       : 0.147
Stream size                              : 8.58 GiB (97%)
Language                                 : English
Default                                  : Yes
Forced                                   : No
Color range                              : Limited
Color primaries                          : BT.709
Transfer characteristics                 : BT.709
Matrix coefficients                      : BT.709

Audio
ID                                       : 2
Format                                   : E-AC-3
Format/Info                              : Enhanced AC-3
Commercial name                          : Dolby Digital Plus
Codec ID                                 : A_EAC3
Duration                                 : 2 h 48 min
Bit rate mode                            : Constant
Bit rate                                 : 256 kb/s
Channel(s)                               : 6 channels
Channel layout                           : L R C LFE Ls Rs
Sampling rate                            : 48.0 kHz
Frame rate                               : 31.250 FPS (1536 SPF)
Compression mode                         : Lossy
Stream size                              : 308 MiB (3%)
Language                                 : English
Service kind                             : Complete Main
Default                                  : Yes
Forced                                   : No

Text
ID                                       : 3
Format                                   : UTF-8
Codec ID                                 : S_TEXT/UTF8
Codec ID/Info                            : UTF-8 Plain Text
Duration                                 : 2 h 46 min
Bit rate                                 : 41 b/s
Count of elements                        : 1652
Stream size                              : 51.1 KiB (0%)
Language                                 : English
Default                                  : No
Forced                                   : No

Complete name                            : Pirates.of.the.Caribbean.Dead.Mans.Chest.2006.1080p.DSNP.WEB-DL.DDP.5.1.H.264-PiRaTeS.mkv
Format                                   : Matroska
Format version                           : Version 4
File size                                : 8.09 GiB
Duration                                 : 2 h 30 min
Overall bit rate mode                    : Variable
Overall bit rate                         : 7 688 kb/s
Encoded date                             : UTC 2023-08-02 07:23:10
Writing application                      : mkvmerge v78.0 ('Running') 64-bit
Writing library                          : libebml v1.4.4 + libmatroska v1.7.1

Video
ID                                       : 1
Format                                   : AVC
Format/Info                              : Advanced Video Codec
Format profile                           : High@L4
Format settings                          : CABAC / 4 Ref Frames
Format settings, CABAC                   : Yes
Format settings, ReFrames                : 4 frames
Codec ID                                 : V_MPEG4/ISO/AVC
Duration                                 : 2 h 30 min
Bit rate mode                            : Variable
Bit rate                                 : 7 430 kb/s
Maximum bit rate                         : 12.7 Mb/s
Width                                    : 1 920 pixels
Height                                   : 1 080 pixels
Display aspect ratio                     : 16:9
Frame rate mode                          : Constant
Frame rate                               : 23.976 (24000/1001) FPS
Color space                              : YUV
Chroma subsampling                       : 4:2:0
Bit depth                                : 8 bits
Scan type                                : Progressive
Bits/(Pixel*Frame)                       : 0.149
Stream size                              : 7.82 GiB (97%)
Language                                 : English
Default                                  : Yes
Forced                                   : No
Color range                              : Limited
Color primaries                          : BT.709
Transfer characteristics                 : BT.709
Matrix coefficients                      : BT.709

Audio
ID                                       : 2
Format                                   : E-AC-3
Format/Info                              : Enhanced AC-3
Commercial name                          : Dolby Digital Plus
Codec ID                                 : A_EAC3
Duration                                 : 2 h 30 min
Bit rate mode                            : Constant
Bit rate                                 : 256 kb/s
Channel(s)                               : 6 channels
Channel layout                           : L R C LFE Ls Rs
Sampling rate                            : 48.0 kHz
Frame rate                               : 31.250 FPS (1536 SPF)
Compression mode                         : Lossy
Stream size                              : 276 MiB (3%)
Language                                 : English
Service kind                             : Complete Main
Default                                  : Yes
Forced                                   : No

Text
ID                                       : 3
Format                                   : UTF-8
Codec ID                                 : S_TEXT/UTF8
Codec ID/Info                            : UTF-8 Plain Text
Duration                                 : 2 h 29 min
Bit rate                                 : 41 b/s
Count of elements                        : 1485
Stream size                              : 45.5 KiB (0%)
Language                                 : English
Default                                  : No
Forced                                   : No
Complete name                            : Pirates.of.the.Caribbean.On.Stranger.Tides.2011.1080p.DSNP.WEB-DL.DDP.5.1.H.264-PiRaTeS.mkv
Format                                   : Matroska
Format                                   : Matroska
Format version                           : Version 4
File size                                : 7.15 GiB
Duration                                 : 2 h 16 min
Overall bit rate mode                    : Variable
Overall bit rate                         : 7 502 kb/s
Encoded date                             : UTC 2023-08-02 08:58:53
Writing application                      : mkvmerge v78.0 ('Running') 64-bit
Writing library                          : libebml v1.4.4 + libmatroska v1.7.1

Video
ID                                       : 1
Format                                   : AVC
Format/Info                              : Advanced Video Codec
Format profile                           : High@L4
Format settings                          : CABAC / 4 Ref Frames
Format settings, CABAC                   : Yes
Format settings, ReFrames                : 4 frames
Codec ID                                 : V_MPEG4/ISO/AVC
Duration                                 : 2 h 16 min
Bit rate mode                            : Variable
Bit rate                                 : 7 244 kb/s
Maximum bit rate                         : 12.7 Mb/s
Width                                    : 1 920 pixels
Height                                   : 1 080 pixels
Display aspect ratio                     : 16:9
Frame rate mode                          : Constant
Frame rate                               : 23.976 (24000/1001) FPS
Color space                              : YUV
Chroma subsampling                       : 4:2:0
Bit depth                                : 8 bits
Scan type                                : Progressive
Bits/(Pixel*Frame)                       : 0.146
Stream size                              : 6.90 GiB (97%)
Language                                 : English
Default                                  : Yes
Forced                                   : No
Color range                              : Limited
Color primaries                          : BT.709
Transfer characteristics                 : BT.709
Matrix coefficients                      : BT.709

Audio
ID                                       : 2
Format                                   : E-AC-3
Format/Info                              : Enhanced AC-3
Commercial name                          : Dolby Digital Plus
Codec ID                                 : A_EAC3
Duration                                 : 2 h 16 min
Bit rate mode                            : Constant
Bit rate                                 : 256 kb/s
Channel(s)                               : 6 channels
Channel layout                           : L R C LFE Ls Rs
Sampling rate                            : 48.0 kHz
Frame rate                               : 31.250 FPS (1536 SPF)
Compression mode                         : Lossy
Stream size                              : 250 MiB (3%)
Language                                 : English
Service kind                             : Complete Main
Default                                  : Yes
Forced                                   : No

Text
ID                                       : 3
Format                                   : UTF-8
Codec ID                                 : S_TEXT/UTF8
Codec ID/Info                            : UTF-8 Plain Text
Duration                                 : 2 h 16 min
Bit rate                                 : 50 b/s
Count of elements                        : 1640
Stream size                              : 50.0 KiB (0%)
Language                                 : English
Default                                  : No
Forced                                   : No

Complete name                            : Pirates.of.the.Caribbean.The.Curse.of.the.Black.Pearl.2003.1080p.DSNP.WEB-DL.DDP.5.1.H.264-PiRaTeS.mkv
Format                                   : Matroska
Format version                           : Version 4
File size                                : 8.02 GiB
Duration                                 : 2 h 23 min
Overall bit rate mode                    : Variable
Overall bit rate                         : 8 022 kb/s
Encoded date                             : UTC 2023-08-02 06:49:46
Writing application                      : mkvmerge v78.0 ('Running') 64-bit
Writing library                          : libebml v1.4.4 + libmatroska v1.7.1

Video
ID                                       : 1
Format                                   : AVC
Format/Info                              : Advanced Video Codec
Format profile                           : High@L4
Format settings                          : CABAC / 4 Ref Frames
Format settings, CABAC                   : Yes
Format settings, ReFrames                : 4 frames
Codec ID                                 : V_MPEG4/ISO/AVC
Duration                                 : 2 h 23 min
Bit rate mode                            : Variable
Bit rate                                 : 7 764 kb/s
Maximum bit rate                         : 12.7 Mb/s
Width                                    : 1 920 pixels
Height                                   : 1 080 pixels
Display aspect ratio                     : 16:9
Frame rate mode                          : Constant
Frame rate                               : 23.976 (24000/1001) FPS
Color space                              : YUV
Chroma subsampling                       : 4:2:0
Bit depth                                : 8 bits
Scan type                                : Progressive
Bits/(Pixel*Frame)                       : 0.156
Stream size                              : 7.76 GiB (97%)
Language                                 : English
Default                                  : Yes
Forced                                   : No
Color range                              : Limited
Color primaries                          : BT.709
Transfer characteristics                 : BT.709
Matrix coefficients                      : BT.709

Audio
ID                                       : 2
Format                                   : E-AC-3
Format/Info                              : Enhanced AC-3
Commercial name                          : Dolby Digital Plus
Codec ID                                 : A_EAC3
Duration                                 : 2 h 23 min
Bit rate mode                            : Constant
Bit rate                                 : 256 kb/s
Channel(s)                               : 6 channels
Channel layout                           : L R C LFE Ls Rs
Sampling rate                            : 48.0 kHz
Frame rate                               : 31.250 FPS (1536 SPF)
Compression mode                         : Lossy
Stream size                              : 262 MiB (3%)
Language                                 : English
Service kind                             : Complete Main
Default                                  : Yes
Forced                                   : No

Text
ID                                       : 3
Format                                   : UTF-8
Codec ID                                 : S_TEXT/UTF8
Codec ID/Info                            : UTF-8 Plain Text
Duration                                 : 2 h 22 min
Bit rate                                 : 46 b/s
Count of elements                        : 1610
Stream size                              : 48.1 KiB (0%)
Language                                 : English
Default                                  : No
Forced                                   : No


  User comments    Sort newest first

评论