花月杀手Killers of the Flower Moon (2023) (BDRip 1080p HEVC HDR10 EAC3 Atmos) [OEP][374EC84C].mkv

2024-02-10 14:54 0 17 0
【中文片名】: 花月杀手
【片名】: Killers of the Flower Moon (2023) (BDRip 1080p HEVC HDR10 EAC3 Atmos) [OEP][374EC84C].mkv
【又名】: 花开之月的杀手
【格式】: 1080P
【国家】: 美国
【影片类型】: 剧情 / 悬疑 / 惊悚 / 历史 / 犯罪 / 西部
【主演】: 布兰登·费舍 / 罗伯特·德尼罗 / 莱昂纳多·迪卡普里奥 / 马丁·斯科塞斯 / 杰西·普莱蒙 / 帕特·希利 / 杰克·怀特 / 祖舒华·克洛斯 / 乔·克里斯特 / 凯瑟琳·威利斯 / 斯蒂夫·维亭 / 巴里·柯宾 / 纳森尼尔·阿坎德 / 大卫·格兰 / 莉莉·格莱斯顿 / 坦图·卡丁诺 / 拉里·杰克·唐森 / 盖里·巴萨拉巴 / 约翰·利思戈 / 迈克尔·阿伯特 / 路易斯·坎瑟米 / 吉因·琼斯 / 杰伊·保尔森 / 塔坦卡·米恩斯 / 史蒂夫·艾斯汀 / 斯特吉尔·辛普森 / 大卫·博恩 / 威廉·贝勒 / 小詹姆斯·希利 / 加里·西弗斯 / 埃里克·罗思 / 卡拉·杰德·迈尔斯 / 亚内·科林斯 / 吉莉安·迪昂 / 斯科特·谢帕德 / 杰森·伊斯贝尔 / 埃里克·帕金森 / 尼克·W·尼克尔森 / 皮特·约恩 / 诺玛·吉恩 / J·C·麦肯泽 / 泰德·韦尔奇 / 沃利·韦尔奇 / 乔伊·奥格莱斯比 / 盖博·卡斯多夫 / 以利沙·普拉特 / 卢卡斯·罗斯 / 阿什莉·妮可·哈德森
【时长】: 206分钟
【上映时间】: 2023-05-20(戛纳国际电影节) / 2023-10-20(美国)
【评分】: 0 7.3
【文件大小】: 7100
【剧情介绍】: 点击查看

您所在用户组暂时无法直接查看隐藏内容,请登陆后重试!!!

内容简介





UHD 4K BluRay to 1080p

preset veryslow, crf 15, qcomp 0.60

Changed FPS from 24 to 23.976 to synce with atmos web audio.

General
Unique ID                   : 253700095636490946349168506927102777080 (0xBEDCDC71934A48D77C9C228074BB56F8)
Complete name               : Killers of the Flower Moon (2023) (BDRip 1080p HEVC HDR10 EAC3 Atmos) [OEP][374EC84C].mkv
Format                      : Matroska
Format version              : Version 4
File size                   : 7.10 GiB
Duration                    : 3 h 25 min
Overall bit rate            : 4 932 kb/s
Frame rate                  : 23.976 FPS
Movie name                  : Killers of the Flower Moon (2023) (BDRip 1080p HEVC HDR10 EAC3 Atmos) [OEP][Encode By Omar]
Encoded date                : 2024-02-10 06:01:32 UTC
Writing application         : mkvmerge v82.0 ('I'm The President') 64-bit
Writing library             : libebml v1.4.5 + libmatroska v1.7.1
Attachments                 : FONTIN_SANS.OTF / FONTIN_SANS_BI.OTF / BAHIJ_MITRA-BOLD.TTF

Video
ID                          : 1
Format                      : HEVC
Format/Info                 : High Efficiency Video Coding
Format profile              : Main 10@L5.1@High
HDR format                  : SMPTE ST 2086, HDR10 compatible
Codec ID                    : V_MPEGH/ISO/HEVC
Duration                    : 3 h 25 min
Bit rate                    : 4 161 kb/s
Width                       : 1 920 pixels
Height                      : 804 pixels
Display aspect ratio        : 2.40:1
Frame rate mode             : Constant
Frame rate                  : 23.976 (24000/1001) FPS
Original frame rate         : 24.000 FPS
Color space                 : YUV
Chroma subsampling          : 4:2:0 (Type 2)
Bit depth                   : 10 bits
Bits/(Pixel*Frame)          : 0.112
Stream size                 : 5.99 GiB (84%)
Title                       : UHD BDRip By Omar
Writing library             : x265 3.5+112-ce8642f22:[Windows][GCC 13.2.0][64 bit] 10bit
Encoding settings           : cpuid=1111039 / frame-threads=5 / numa-pools=32,32 / wpp / no-pmode / no-pme / no-psnr / no-ssim / log-level=2 / input-csp=1 / input-res=1920x804 / interlace=0 / total-frames=296337 / level-idc=51 / high-tier=1 / uhd-bd=0 / ref=4 / no-allow-non-conformance / repeat-headers / annexb / aud / no-eob / no-eos / hrd / info / hash=0 / temporal-layers=0 / open-gop / min-keyint=24 / keyint=250 / gop-lookahead=0 / bframes=16 / b-adapt=2 / b-pyramid / bframe-bias=0 / rc-lookahead=40 / lookahead-slices=0 / scenecut=40 / no-hist-scenecut / radl=0 / no-splice / no-intra-refresh / ctu=64 / min-cu-size=8 / rect / amp / max-tu-size=32 / tu-inter-depth=3 / tu-intra-depth=3 / limit-tu=0 / rdoq-level=2 / dynamic-rd=0.00 / no-ssim-rd / signhide / no-tskip / nr-intra=0 / nr-inter=0 / no-constrained-intra / strong-intra-smoothing / max-merge=5 / limit-refs=0 / no-limit-modes / me=3 / subme=4 / merange=57 / temporal-mvp / no-frame-dup / no-hme / weightp / weightb / no-analyze-src-pics / deblock=-3:-3 / sao / no-sao-non-deblock / rd=6 / selective-sao=4 / no-early-skip / rskip / no-fast-intra / no-tskip-fast / no-cu-lossless / b-intra / no-splitrd-skip / rdpenalty=0 / psy-rd=2.00 / psy-rdoq=1.00 / no-rd-refine / no-lossless / cbqpoffs=0 / crqpoffs=0 / rc=crf / crf=15.0 / qcomp=0.60 / qpstep=4 / stats-write=0 / stats-read=0 / vbv-maxrate=160000 / vbv-bufsize=160000 / vbv-init=0.9 / min-vbv-fullness=50.0 / max-vbv-fullness=80.0 / crf-max=0.0 / crf-min=0.0 / ipratio=1.40 / pbratio=1.30 / aq-mode=2 / aq-strength=1.00 / cutree / zone-count=0 / no-strict-cbr / qg-size=32 / no-rc-grain / qpmax=69 / qpmin=0 / no-const-vbv / sar=0 / overscan=0 / videoformat=5 / range=0 / colorprim=9 / transfer=16 / colormatrix=9 / chromaloc=1 / chromaloc-top=2 / chromaloc-bottom=2 / display-window=0 / master-display=G(13250,34500)B(7500,3000)R(34000,16000)WP(15635,16450)L(10000000,1) / cll=1000,163 / min-luma=0 / max-luma=1023 / log2-max-poc-lsb=8 / vui-timing-info / vui-hrd-info / slices=1 / no-opt-qp-pps / no-opt-ref-list-length-pps / no-multi-pass-opt-rps / scenecut-bias=0.05 / no-opt-cu-delta-qp / no-aq-motion / hdr10 / hdr10-opt / no-dhdr10-opt / no-idr-recovery-sei / analysis-reuse-level=0 / analysis-save-reuse-level=0 / analysis-load-reuse-level=0 / scale-factor=0 / refine-intra=0 / refine-inter=0 / refine-mv=1 / refine-ctu-distortion=0 / no-limit-sao / ctu-info=0 / no-lowpass-dct / refine-analysis-type=0 / copy-pic=1 / max-ausize-factor=1.0 / no-dynamic-refine / no-single-sei / no-hevc-aq / no-svt / no-field / qp-adaptation-range=1.00 / scenecut-aware-qp=0conformance-window-offsets / right=0 / bottom=0 / decoder-max-rate=0 / no-vbv-live-multi-pass / no-mcstf / no-sbrc
Language                    : English
Default                     : Yes
Forced                      : No
Color range                 : Limited
Color primaries             : BT.2020
Transfer characteristics    : PQ
Matrix coefficients         : BT.2020 non-constant
Mastering display color pri : Display P3
Mastering display luminance : min: 0.0001 cd/m2, max: 1000 cd/m2
Maximum Content Light Level : 1000 cd/m2
Maximum Frame-Average Light : 163 cd/m2

Audio
ID                          : 2
Format                      : E-AC-3 JOC
Format/Info                 : Enhanced AC-3 with Joint Object Coding
Commercial name             : Dolby Digital Plus with Dolby Atmos
Codec ID                    : A_EAC3
Duration                    : 3 h 25 min
Bit rate mode               : Constant
Bit rate                    : 768 kb/s
Channel(s)                  : 6 channels
Channel layout              : L R C LFE Ls Rs
Sampling rate               : 48.0 kHz
Frame rate                  : 31.250 FPS (1536 SPF)
Compression mode            : Lossy
Delay relative to video     : 14 ms
Stream size                 : 1.11 GiB (16%)
Title                       : EAC3 Atmos 768 Kbps 5.1 (Untouched)
Language                    : English
Service kind                : Complete Main
Default                     : Yes
Forced                      : No
Complexity index            : 16
Number of dynamic objects   : 15
Bed channel count           : 1 channel
Bed channel configuration   : LFE

Text #1
ID                          : 3
Format                      : UTF-8
Codec ID                    : S_TEXT/UTF8
Codec ID/Info               : UTF-8 Plain Text
Duration                    : 3 h 16 min
Bit rate                    : 59 b/s
Frame rate                  : 0.208 FPS
Count of elements           : 2449
Stream size                 : 86.0 KiB (0%)
Title                       : ENGLISH-SRT Sub (Official)
Language                    : English
Default                     : Yes
Forced                      : No

Text #2
ID                          : 4
Format                      : UTF-8
Codec ID                    : S_TEXT/UTF8
Codec ID/Info               : UTF-8 Plain Text
Duration                    : 3 h 17 min
Bit rate                    : 68 b/s
Frame rate                  : 0.237 FPS
Count of elements           : 2813
Stream size                 : 98.6 KiB (0%)
Title                       : ENGLISH-SRT-SDH Sub (Official)
Language                    : English
Default                     : Yes
Forced                      : No

Text #3
ID                          : 5
Format                      : ASS
Codec ID                    : S_TEXT/ASS
Codec ID/Info               : Advanced Sub Station Alpha
Duration                    : 3 h 24 min
Bit rate                    : 86 b/s
Frame rate                  : 0.207 FPS
Count of elements           : 2544
Compression mode            : Lossless
Stream size                 : 130 KiB (0%)
Title                       : GERMAN-ASS Sub (Official)
Language                    : German
Default                     : Yes
Forced                      : No

Text #4
ID                          : 6
Format                      : ASS
Codec ID                    : S_TEXT/ASS
Codec ID/Info               : Advanced Sub Station Alpha
Duration                    : 3 h 21 min
Bit rate                    : 91 b/s
Frame rate                  : 0.193 FPS
Count of elements           : 2330
Compression mode            : Lossless
Stream size                 : 136 KiB (0%)
Title                       : ITALIAN-ASS Sub (Official)
Language                    : Italian
Default                     : Yes
Forced                      : No

Text #5
ID                          : 7
Format                      : ASS
Codec ID                    : S_TEXT/ASS
Codec ID/Info               : Advanced Sub Station Alpha
Duration                    : 3 h 24 min
Bit rate                    : 87 b/s
Frame rate                  : 0.195 FPS
Count of elements           : 2394
Compression mode            : Lossless
Stream size                 : 132 KiB (0%)
Title                       : KOREAN-ASS Sub (Official)
Language                    : Korean
Default                     : Yes
Forced                      : No

Text #6
ID                          : 8
Format                      : ASS
Codec ID                    : S_TEXT/ASS
Codec ID/Info               : Advanced Sub Station Alpha
Duration                    : 3 h 24 min
Bit rate                    : 117 b/s
Frame rate                  : 0.195 FPS
Count of elements           : 2390
Compression mode            : Lossless
Stream size                 : 176 KiB (0%)
Title                       : RUSSIAN-ASS Sub (Official)
Language                    : Russian
Default                     : Yes
Forced                      : No

Text #7
ID                          : 9
Format                      : ASS
Codec ID                    : S_TEXT/ASS
Codec ID/Info               : Advanced Sub Station Alpha
Duration                    : 3 h 24 min
Bit rate                    : 117 b/s
Frame rate                  : 0.195 FPS
Count of elements           : 2389
Compression mode            : Lossless
Stream size                 : 176 KiB (0%)
Title                       : ARABIC-ASS Sub (Official)
Language                    : Arabic
Default                     : Yes
Forced                      : No
  User comments    Sort newest first

评论