自由职业者Freelance (2023) (BDRip 1080p HEVC HDR10 EAC3) [OEP][45FAFF2A].mkv

2024-02-10 21:35 0 16 0
【中文片名】: 自由职业者
【片名】: Freelance (2023) (BDRip 1080p HEVC HDR10 EAC3) [OEP][45FAFF2A].mkv
【又名】: 雇佣兵
【格式】: 1080P
【国家】: 美国
【影片类型】: 喜剧 / 动作
【主演】: 爱丽森·布里 / 马尔顿·索克斯 / 皮埃尔·莫瑞尔 / 爱丽丝·伊芙 / 克里斯蒂安·史莱特 / 约翰·塞纳 / 胡安·巴勃罗·拉瓦 / 朱莉安娜·亚历山大 / 茉莉·麦克凯恩 / 雅各布·兰兹 / 丹尼尔·托罗 / 菲奥娜·霍西 / 毛里西奥·丘雅 / 塞巴斯蒂安·埃斯拉瓦 / 罗伯托·卡诺 / 迭戈·巴斯克斯 / 尼尔森·卡马约 / 马特·穆迪 / 梅莉达·萨维兹 / 费利佩·安德烈斯·埃查瓦里亚 / 加玛尔·迪拉德 / 优素福·汤加里费 / 约书亚·库克 / 丹尼尔·托罗·莫雷诺 / 巴勃罗·丹尼尔·罗德里格斯 / 托马索·塔利 / 查利·琼斯 / 米歇尔·法吉·洪莱因
【时长】: 109分钟
【上映时间】: 2023-10-06(美国)
【评分】: 0 0
【文件大小】: 5220
【剧情介绍】: 点击查看

您所在用户组暂时无法直接查看隐藏内容,请登陆后重试!!!

内容简介





UHD 4K BluRay to 1080p

preset veryslow, crf 12.5, qcomp 0.60

General
Unique ID                   : 180295524392499119842496357622955815604 (0x87A3A7A945E4C3CA476CA834F41EB2B4)
Complete name               : Freelance (2023) (BDRip 1080p HEVC HDR10 EAC3) [OEP][45FAFF2A].mkv
Format                      : Matroska
Format version              : Version 4
File size                   : 5.22 GiB
Duration                    : 1 h 48 min
Overall bit rate            : 6 881 kb/s
Frame rate                  : 23.976 FPS
Movie name                  : Freelance (2023) (BDRip 1080p HEVC HDR10 EAC3) [OEP][Encode By Omar]
Encoded date                : 2024-02-10 12:47:37 UTC
Writing application         : mkvmerge v82.0 ('I'm The President') 64-bit
Writing library             : libebml v1.4.5 + libmatroska v1.7.1
Attachments                 : BAHIJ_MITRA-BOLD.TTF

Video
ID                          : 1
Format                      : HEVC
Format/Info                 : High Efficiency Video Coding
Format profile              : Main 10@L5.1@High
HDR format                  : SMPTE ST 2086, HDR10 compatible
Codec ID                    : V_MPEGH/ISO/HEVC
Duration                    : 1 h 48 min
Bit rate                    : 6 089 kb/s
Width                       : 1 920 pixels
Height                      : 804 pixels
Display aspect ratio        : 2.40:1
Frame rate mode             : Constant
Frame rate                  : 23.976 (24000/1001) FPS
Color space                 : YUV
Chroma subsampling          : 4:2:0 (Type 2)
Bit depth                   : 10 bits
Bits/(Pixel*Frame)          : 0.165
Stream size                 : 4.62 GiB (88%)
Title                       : UHD BDRip By Omar
Writing library             : x265 3.5+153+15-fc339385e:[Windows][GCC 13.2.0][64 bit] 10bit
Encoding settings           : cpuid=1111039 / frame-threads=5 / numa-pools=32,32 / wpp / no-pmode / no-pme / no-psnr / no-ssim / log-level=2 / input-csp=1 / input-res=1920x804 / interlace=0 / total-frames=156181 / level-idc=51 / high-tier=1 / uhd-bd=0 / ref=4 / no-allow-non-conformance / repeat-headers / annexb / aud / no-eob / no-eos / hrd / info / hash=0 / temporal-layers=0 / open-gop / min-keyint=23 / keyint=250 / gop-lookahead=0 / bframes=16 / b-adapt=2 / b-pyramid / bframe-bias=0 / rc-lookahead=40 / lookahead-slices=0 / scenecut=40 / no-hist-scenecut / radl=0 / no-splice / no-intra-refresh / ctu=64 / min-cu-size=8 / rect / amp / max-tu-size=32 / tu-inter-depth=3 / tu-intra-depth=3 / limit-tu=0 / rdoq-level=2 / dynamic-rd=0.00 / no-ssim-rd / signhide / no-tskip / nr-intra=0 / nr-inter=0 / no-constrained-intra / strong-intra-smoothing / max-merge=5 / limit-refs=0 / no-limit-modes / me=3 / subme=4 / merange=57 / temporal-mvp / no-frame-dup / no-hme / weightp / weightb / no-analyze-src-pics / deblock=-3:-3 / sao / no-sao-non-deblock / rd=6 / selective-sao=4 / no-early-skip / rskip / no-fast-intra / no-tskip-fast / no-cu-lossless / b-intra / no-splitrd-skip / rdpenalty=0 / psy-rd=2.00 / psy-rdoq=1.00 / no-rd-refine / no-lossless / cbqpoffs=0 / crqpoffs=0 / rc=crf / crf=12.5 / qcomp=0.80 / qpstep=4 / stats-write=0 / stats-read=0 / vbv-maxrate=160000 / vbv-bufsize=160000 / vbv-init=0.9 / min-vbv-fullness=50.0 / max-vbv-fullness=80.0 / crf-max=0.0 / crf-min=0.0 / ipratio=1.40 / pbratio=1.30 / aq-mode=2 / aq-strength=1.00 / aq-bias-strength=1.00 / cutree / zone-count=0 / no-strict-cbr / qg-size=32 / no-rc-grain / qpmax=69 / qpmin=0 / no-const-vbv / sar=0 / overscan=0 / videoformat=5 / range=0 / colorprim=9 / transfer=16 / colormatrix=9 / chromaloc=1 / chromaloc-top=2 / chromaloc-bottom=2 / display-window=0 / master-display=G(13250,34500)B(7500,3000)R(34000,16000)WP(15635,16450)L(10000000,50) / cll=694,134 / min-luma=0 / max-luma=1023 / log2-max-poc-lsb=8 / vui-timing-info / vui-hrd-info / slices=1 / no-opt-qp-pps / no-opt-ref-list-length-pps / no-multi-pass-opt-rps / scenecut-bias=0.05 / no-opt-cu-delta-qp / no-aq-motion / hdr10 / hdr10-opt / no-dhdr10-opt / no-idr-recovery-sei / analysis-reuse-level=0 / analysis-save-reuse-level=0 / analysis-load-reuse-level=0 / scale-factor=0 / refine-intra=0 / refine-inter=0 / refine-mv=1 / refine-ctu-distortion=0 / no-limit-sao / ctu-info=0 / no-lowpass-dct / refine-analysis-type=0 / copy-pic=1 / max-ausize-factor=1.0 / no-dynamic-refine / no-single-sei / no-hevc-aq / no-svt / no-field / qp-adaptation-range=1.00 / scenecut-aware-qp=0 / conformance-window-offsets / right=0 / bottom=0 / decoder-max-rate=0 / no-vbv-live-multi-pass / no-mcstf / no-sbrc
Language                    : English
Default                     : Yes
Forced                      : No
Color range                 : Limited
Color primaries             : BT.2020
Transfer characteristics    : PQ
Matrix coefficients         : BT.2020 non-constant
Mastering display color pri : Display P3
Mastering display luminance : min: 0.0050 cd/m2, max: 1000 cd/m2
Maximum Content Light Level : 694 cd/m2
Maximum Frame-Average Light : 134 cd/m2

Audio
ID                          : 2
Format                      : E-AC-3
Format/Info                 : Enhanced AC-3
Commercial name             : Dolby Digital Plus
Codec ID                    : A_EAC3
Duration                    : 1 h 48 min
Bit rate mode               : Constant
Bit rate                    : 768 kb/s
Channel(s)                  : 6 channels
Channel layout              : L R C LFE Ls Rs
Sampling rate               : 48.0 kHz
Frame rate                  : 31.250 FPS (1536 SPF)
Compression mode            : Lossy
Stream size                 : 596 MiB (11%)
Title                       : EAC3 768 Kbps 5.1 By Omar
Language                    : English
Service kind                : Complete Main
Default                     : Yes
Forced                      : No

Text #1
ID                          : 3
Format                      : UTF-8
Codec ID                    : S_TEXT/UTF8
Codec ID/Info               : UTF-8 Plain Text
Duration                    : 1 h 43 min
Bit rate                    : 60 b/s
Frame rate                  : 0.273 FPS
Count of elements           : 1694
Stream size                 : 45.6 KiB (0%)
Title                       : ENGLISH-SRT Sub (Official)
Language                    : English
Default                     : Yes
Forced                      : No

Text #2
ID                          : 4
Format                      : UTF-8
Codec ID                    : S_TEXT/UTF8
Codec ID/Info               : UTF-8 Plain Text
Duration                    : 1 h 43 min
Bit rate                    : 64 b/s
Frame rate                  : 0.300 FPS
Count of elements           : 1860
Stream size                 : 49.0 KiB (0%)
Title                       : ENGLISH-SDH-SRT Sub (Official)
Language                    : English
Default                     : Yes
Forced                      : No

Text #3
ID                          : 5
Format                      : ASS
Codec ID                    : S_TEXT/ASS
Codec ID/Info               : Advanced Sub Station Alpha
Duration                    : 1 h 44 min
Bit rate                    : 133 b/s
Frame rate                  : 0.224 FPS
Count of elements           : 1408
Compression mode            : Lossless
Stream size                 : 103 KiB (0%)
Title                       : ARABIC-ASS Sub (ALITalal)
Language                    : Arabic
Default                     : Yes
Forced                      : No

Text #4
ID                          : 6
Format                      : PGS
Muxing mode                 : zlib
Codec ID                    : S_HDMV/PGS
Codec ID/Info               : Picture based subtitle format used on BDs/HD-DVDs
Duration                    : 1 h 43 min
Bit rate                    : 43.0 kb/s
Frame rate                  : 0.385 FPS
Count of elements           : 2388
Stream size                 : 31.8 MiB (1%)
Title                       : GERMAN-PGS Sub (Untouched)
Language                    : German
Default                     : Yes
Forced                      : No

Menu
00:00:00.000                : en:Chapter 01
00:09:28.568                : en:Chapter 02
00:20:52.418                : en:Chapter 03
00:29:16.713                : en:Chapter 04
00:38:51.829                : en:Chapter 05
00:49:16.954                : en:Chapter 06
00:55:45.842                : en:Chapter 07
01:04:29.407                : en:Chapter 08
01:13:22.648                : en:Chapter 09
01:22:14.638                : en:Chapter 10
01:31:53.425                : en:Chapter 11
01:43:10.017                : en:Chapter 12
  User comments    Sort newest first

评论