流浪地球2The Wandering Earth II (2023) (BDRip IMAX 1080p HEVC HDR10 EAC3 Atmos) CHINESE [Anime Land][DE6F2EDB].mkv

2024-02-12 00:58 0 21 1
【中文片名】: 流浪地球2
【片名】: The Wandering Earth II (2023) (BDRip IMAX 1080p HEVC HDR10 EAC3 Atmos) CHINESE [Anime Land][DE6F2EDB].mkv
【又名】: The Wandering Earth Ⅱ,The Wandering Earth 2,《流浪地球》前传
【格式】: 1080P
【国家】: 中国大陆
【影片类型】: 科幻 / 冒险 / 灾难
【主演】: 刘德华 / 李雪健 / 沙溢 / 吴京 / 佟丽娅 / 王红卫 / 王智 / 宁理 / 张衣 / 郑楚一 / 安地 / 朱颜曼滋 / 龚格尔 / 郭帆 / 杨治学 / 叶濡畅 / 刘慈欣 / 胡先煦 / 严华 / 国义骞 / 克拉拉 / 徐建 / 周强 / 王若熹 / 伟大力 / 天使 / 叶展飞 / 倪腾 / 霍青 / 刘寅 / 吴恩璇 / 孔大山 / 刘佳沄 / 丁燕来 / 郜昂 / 李仁 / 洪真 / 王磊 / 王一通 / 杨洪涛 / 赵叶索 / 李路琦 / 黄纪渊 / 吴静一 / 付嘉灏 / 瓦伦廷·沃罗布耶夫 / 李一冉 / 朱超艺 / 何金和龙 / 何金和金 / 张涛 / 向进 / 李沛东 / 柯国庆 / 李丹妮
【时长】: 173分钟
【上映时间】: 2023-01-22(中国大陆)
【评分】: 7.9 8.4
【文件大小】: 6710
【剧情介绍】: 点击查看

您所在用户组暂时无法直接查看隐藏内容,请登陆后重试!!!

内容简介





UHD 4K BluRay to 1080p

preset veryslow, crf 15, qcomp 0.80

General
Unique ID                   : 279297767164287726170109646359319902658 (0xD21ECB16E7206BAFA92D5C86CB5579C2)
Complete name               : [Anime Land] The Wandering Earth II (2023) (BDRip 1080p HEVC HDR10 EAC3 Atmos) CHINESE [DE6F2EDB].mkv
Format                      : Matroska
Format version              : Version 4
File size                   : 6.71 GiB
Duration                    : 2 h 53 min
Overall bit rate            : 5 549 kb/s
Frame rate                  : 24.000 FPS
Movie name                  : [Anime Land] The Wandering Earth II (2023) (BDRip 1080p HEVC HDR10 EAC3 Atmos) CHINESE [Encode By Omar]
Encoded date                : 2024-02-11 07:53:44 UTC
Writing application         : mkvmerge v82.0 ('I'm The President') 64-bit
Writing library             : libebml v1.4.5 + libmatroska v1.7.1
Attachments                 : BAHIJ_MITRA-BOLD.TTF

Video
ID                          : 1
Format                      : HEVC
Format/Info                 : High Efficiency Video Coding
Format profile              : Main 10@L5.1@High
HDR format                  : SMPTE ST 2086, HDR10 compatible
Codec ID                    : V_MPEGH/ISO/HEVC
Duration                    : 2 h 53 min
Bit rate                    : 5 046 kb/s
Width                       : 1 920 pixels
Height                      : 804 pixels
Display aspect ratio        : 2.40:1
Frame rate mode             : Constant
Frame rate                  : 24.000 FPS
Color space                 : YUV
Chroma subsampling          : 4:2:0 (Type 2)
Bit depth                   : 10 bits
Bits/(Pixel*Frame)          : 0.136
Stream size                 : 6.10 GiB (91%)
Title                       : UHD BDRip By Omar
Writing library             : x265 3.5+112-ce8642f22:[Windows][GCC 13.2.0][64 bit] 10bit
Encoding settings           : cpuid=1111039 / frame-threads=5 / numa-pools=32,32 / wpp / no-pmode / no-pme / no-psnr / no-ssim / log-level=2 / input-csp=1 / input-res=1920x804 / interlace=0 / total-frames=249395 / level-idc=51 / high-tier=1 / uhd-bd=0 / ref=4 / no-allow-non-conformance / repeat-headers / annexb / aud / no-eob / no-eos / hrd / info / hash=0 / temporal-layers=0 / open-gop / min-keyint=24 / keyint=250 / gop-lookahead=0 / bframes=16 / b-adapt=2 / b-pyramid / bframe-bias=0 / rc-lookahead=40 / lookahead-slices=0 / scenecut=40 / no-hist-scenecut / radl=0 / no-splice / no-intra-refresh / ctu=64 / min-cu-size=8 / rect / amp / max-tu-size=32 / tu-inter-depth=3 / tu-intra-depth=3 / limit-tu=0 / rdoq-level=2 / dynamic-rd=0.00 / no-ssim-rd / signhide / no-tskip / nr-intra=0 / nr-inter=0 / no-constrained-intra / strong-intra-smoothing / max-merge=5 / limit-refs=0 / no-limit-modes / me=3 / subme=4 / merange=57 / temporal-mvp / no-frame-dup / no-hme / weightp / weightb / no-analyze-src-pics / deblock=-3:-3 / sao / no-sao-non-deblock / rd=6 / selective-sao=4 / no-early-skip / rskip / no-fast-intra / no-tskip-fast / no-cu-lossless / b-intra / no-splitrd-skip / rdpenalty=0 / psy-rd=2.00 / psy-rdoq=1.00 / no-rd-refine / no-lossless / cbqpoffs=0 / crqpoffs=0 / rc=crf / crf=15.0 / qcomp=0.80 / qpstep=4 / stats-write=0 / stats-read=0 / vbv-maxrate=160000 / vbv-bufsize=160000 / vbv-init=0.9 / min-vbv-fullness=50.0 / max-vbv-fullness=80.0 / crf-max=0.0 / crf-min=0.0 / ipratio=1.40 / pbratio=1.30 / aq-mode=2 / aq-strength=1.00 / cutree / zone-count=0 / no-strict-cbr / qg-size=32 / no-rc-grain / qpmax=69 / qpmin=0 / no-const-vbv / sar=0 / overscan=0 / videoformat=5 / range=0 / colorprim=9 / transfer=16 / colormatrix=9 / chromaloc=1 / chromaloc-top=2 / chromaloc-bottom=2 / display-window=0 / master-display=G(8500,39850)B(6550,2300)R(35400,14600)WP(15635,16450)L(10000000,1) / cll=0,0 / min-luma=0 / max-luma=1023 / log2-max-poc-lsb=8 / vui-timing-info / vui-hrd-info / slices=1 / no-opt-qp-pps / no-opt-ref-list-length-pps / no-multi-pass-opt-rps / scenecut-bias=0.05 / no-opt-cu-delta-qp / no-aq-motion / hdr10 / hdr10-opt / no-dhdr10-opt / no-idr-recovery-sei / analysis-reuse-level=0 / analysis-save-reuse-level=0 / analysis-load-reuse-level=0 / scale-factor=0 / refine-intra=0 / refine-inter=0 / refine-mv=1 / refine-ctu-distortion=0 / no-limit-sao / ctu-info=0 / no-lowpass-dct / refine-analysis-type=0 / copy-pic=1 / max-ausize-factor=1.0 / no-dynamic-refine / no-single-sei / no-hevc-aq / no-svt / no-field / qp-adaptation-range=1.00 / scenecut-aware-qp=0conformance-window-offsets / right=0 / bottom=0 / decoder-max-rate=0 / no-vbv-live-multi-pass / no-mcstf / no-sbrc
Language                    : Chinese
Default                     : Yes
Forced                      : No
Color range                 : Limited
Color primaries             : BT.2020
Transfer characteristics    : PQ
Matrix coefficients         : BT.2020 non-constant
Mastering display color pri : BT.2020
Mastering display luminance : min: 0.0001 cd/m2, max: 1000 cd/m2

Audio
ID                          : 2
Format                      : E-AC-3 JOC
Format/Info                 : Enhanced AC-3 with Joint Object Coding
Commercial name             : Dolby Digital Plus with Dolby Atmos
Codec ID                    : A_EAC3
Duration                    : 2 h 53 min
Bit rate mode               : Constant
Bit rate                    : 448 kb/s
Channel(s)                  : 6 channels
Channel layout              : L R C LFE Ls Rs
Sampling rate               : 48.0 kHz
Frame rate                  : 31.250 FPS (1536 SPF)
Compression mode            : Lossy
Delay relative to video     : 22 ms
Stream size                 : 555 MiB (8%)
Title                       : EAC3 Atmos 448 Kbps 5.1 (Untouched)
Language                    : Chinese
Service kind                : Complete Main
Default                     : Yes
Forced                      : No
Complexity index            : 16
Number of dynamic objects   : 15
Bed channel count           : 1 channel
Bed channel configuration   : LFE

Text #1
ID                          : 3
Format                      : PGS
Muxing mode                 : zlib
Codec ID                    : S_HDMV/PGS
Codec ID/Info               : Picture based subtitle format used on BDs/HD-DVDs
Duration                    : 2 h 52 min
Bit rate                    : 30.7 kb/s
Frame rate                  : 0.406 FPS
Count of elements           : 4203
Stream size                 : 37.8 MiB (1%)
Title                       : CHINESE-PGS Sub (Untouched)
Language                    : Chinese
Default                     : Yes
Forced                      : No

Text #2
ID                          : 4
Format                      : PGS
Muxing mode                 : zlib
Codec ID                    : S_HDMV/PGS
Codec ID/Info               : Picture based subtitle format used on BDs/HD-DVDs
Duration                    : 2 h 52 min
Bit rate                    : 31.9 kb/s
Frame rate                  : 0.406 FPS
Count of elements           : 4203
Stream size                 : 39.3 MiB (1%)
Title                       : CHINESE-PGS Sub 2 (Untouched)
Language                    : Chinese
Default                     : Yes
Forced                      : No

Text #3
ID                          : 5
Format                      : PGS
Muxing mode                 : zlib
Codec ID                    : S_HDMV/PGS
Codec ID/Info               : Picture based subtitle format used on BDs/HD-DVDs
Duration                    : 2 h 51 min
Bit rate                    : 30.6 kb/s
Frame rate                  : 0.439 FPS
Count of elements           : 4508
Stream size                 : 37.5 MiB (1%)
Title                       : ENGLISH-PGS Sub (Untouched)
Language                    : English
Default                     : Yes
Forced                      : No

Text #4
ID                          : 6
Format                      : ASS
Codec ID                    : S_TEXT/ASS
Codec ID/Info               : Advanced Sub Station Alpha
Duration                    : 2 h 52 min
Bit rate                    : 92 b/s
Frame rate                  : 0.207 FPS
Count of elements           : 2144
Compression mode            : Lossless
Stream size                 : 117 KiB (0%)
Title                       : KOREAN-ASS Sub (KorSub)
Language                    : Korean
Default                     : Yes
Forced                      : No

Text #5
ID                          : 7
Format                      : ASS
Codec ID                    : S_TEXT/ASS
Codec ID/Info               : Advanced Sub Station Alpha
Duration                    : 2 h 45 min
Bit rate                    : 121 b/s
Frame rate                  : 0.202 FPS
Count of elements           : 2013
Compression mode            : Lossless
Stream size                 : 147 KiB (0%)
Title                       : ARABIC-ASS Sub (BasetAlghmari)
Language                    : Arabic
Default                     : Yes
Forced                      : No

Menu
00:00:00.000                : zh:Chapter 01
00:14:53.125                : zh:Chapter 02
00:29:10.958                : zh:Chapter 03
00:42:03.500                : zh:Chapter 04
00:57:57.875                : zh:Chapter 05
01:12:37.832                : zh:Chapter 06
01:26:13.250                : zh:Chapter 07
01:41:58.875                : zh:Chapter 08
01:53:16.957                : zh:Chapter 09
02:10:10.582                : zh:Chapter 10
02:22:00.583                : zh:Chapter 11
02:36:02.790                : zh:Chapter 12
02:53:11.208                : zh:Chapter 13
  User comments    Sort newest first

评论