狩猎The.Hunt.2020.1080p.Peacock.WEB.E-AC3.5.1.x264-PANAM

2024-02-12 11:19 0 9 0
【中文片名】: 狩猎
【片名】: The.Hunt.2020.1080p.Peacock.WEB.E-AC3.5.1.x264-PANAM
【又名】: 猎逃生死战(港),猎捕,追捕
【格式】: 1080P
【国家】: 美国
【影片类型】: 动作 / 惊悚
【主演】: 艾玛·罗伯茨 / 克雷格·卓贝 / 达蒙·林德洛夫 / 韦恩·杜瓦尔 / 格伦·豪尔顿 / 希拉里·斯万克 / 伊桑·苏普利 / 埃米·马迪根 / 特瑞·韦伯 / 斯蒂芬·考特尔 / 贾斯汀·哈特雷 / 伊克·巴里霍尔兹 / 梅肯·布莱尔 / 胡安·贾斯帕 / J.C.麦肯泽 / 贝蒂·吉尔平 / 吉姆·克洛克 / 西尔维娅·格雷丝·克里姆 / 汉斯·马雷罗 / 尼克·库斯 / 里德·伯尼 / 汉娜·艾琳 / 迪恩·J·韦斯特 / 内德·尤瑟夫 / 马丁·威廉·哈里斯
【时长】: 90分钟
【上映时间】: 2020-03-13(美国)
【评分】: 6.4 7.3
【文件大小】: 5070
【剧情介绍】: 点击查看

您所在用户组暂时无法直接查看隐藏内容,请登陆后重试!!!

内容简介

Twelve strangers wake up in a clearing. They don't know where they are, or how they got there. They don't know they've been chosen - for a very specific purpose - The Hunt.

Director
Craig Zobel
Writers
Nick Cuse Damon Lindelof
Stars
Betty Gilpin Hilary Swank Ike Barin holtz













General
Unique ID                                : 84918618800594032773251774948743109666 (0x3FE2BB27F4586C9F06171D7EB620DC22)
Complete name                            : The.Hunt.2020.1080p.Peacock.WEB.E-AC3.5.1.x264-PANAM.mkv
Format                                   : Matroska
Format version                           : Version 4
File size                                : 5.07 GiB
Duration                                 : 1 h 30 min
Overall bit rate                         : 8 053 kb/s
Frame rate                               : 23.976 FPS
Movie name                               : The Hunt
Description                              : A woman turns the tables on ruthless elitists who hunt humans for sport.
Writing application                      : Lavf60.3.100
Writing library                          : Lavf60.3.100
Cover                                    : Yes
ErrorDetectionType                       : Per level 1
Attachments                              : cover.png
ARTIST                                   : Ike Barinholtz, Betty Gilpin, Emma Roberts, Hilary Swank, Glenn Howerton, Amy Madigan, Reed Birney, Macon Blair, Ethan Suplee
DATE                                     : 2020
SHOW                                     : The Hunt

Video
ID                                       : 1
Format                                   : AVC
Format/Info                              : Advanced Video Codec
Format profile                           : High@L4
Format settings                          : CABAC / 3 Ref Frames
Format settings, CABAC                   : Yes
Format settings, Reference frames        : 3 frames
Codec ID                                 : V_MPEG4/ISO/AVC
Duration                                 : 1 h 30 min
Bit rate                                 : 7 814 kb/s
Width                                    : 1 920 pixels
Height                                   : 1 080 pixels
Display aspect ratio                     : 16:9
Frame rate mode                          : Constant
Frame rate                               : 23.976 (24000/1001) FPS
Color space                              : YUV
Chroma subsampling                       : 4:2:0
Bit depth                                : 8 bits
Scan type                                : Progressive
Bits/(Pixel*Frame)                       : 0.157
Stream size                              : 4.72 GiB (93%)
Writing library                          : x264 core 164 r3095 baee400
Encoding settings                        : cabac=1 / ref=3 / deblock=1:0:0 / analyse=0x3:0x113 / me=umh / subme=7 / psy=1 / psy_rd=0.00:0.00 / mixed_ref=1 / me_range=16 / chroma_me=1 / trellis=1 / 8x8dct=1 / cqm=0 / deadzone=21,11 / fast_pskip=1 / chroma_qp_offset=0 / threads=34 / lookahead_threads=5 / sliced_threads=0 / nr=0 / decimate=1 / interlaced=0 / bluray_compat=0 / stitchable=1 / constrained_intra=0 / bframes=2 / b_pyramid=0 / b_adapt=1 / b_bias=0 / direct=1 / weightb=1 / open_gop=0 / weightp=2 / keyint=48 / keyint_min=4 / scenecut=0 / intra_refresh=0 / rc_lookahead=48 / rc=2pass / mbtree=1 / bitrate=7814 / ratetol=1.0 / qcomp=0.60 / qpmin=10 / qpmax=51 / qpstep=4 / cplxblur=20.0 / qblur=0.5 / vbv_maxrate=11729 / vbv_bufsize=11729 / nal_hrd=none / filler=0 / ip_ratio=1.41 / aq=1:1.00
Default                                  : Yes
Forced                                   : No
Color range                              : Limited
Color primaries                          : BT.709
Transfer characteristics                 : BT.709
Matrix coefficients                      : BT.709
VENDOR_ID                                : [0][0][0][0]

Audio #1
ID                                       : 2
Format                                   : E-AC-3
Format/Info                              : Enhanced AC-3
Commercial name                          : Dolby Digital Plus
Codec ID                                 : A_EAC3
Duration                                 : 1 h 30 min
Bit rate mode                            : Constant
Bit rate                                 : 192 kb/s
Channel(s)                               : 6 channels
Channel layout                           : L R C LFE Ls Rs
Sampling rate                            : 48.0 kHz
Frame rate                               : 31.250 FPS (1536 SPF)
Bit depth                                : 32 bits
Compression mode                         : Lossy
Stream size                              : 124 MiB (2%)
Title                                    : English
Language                                 : English
Service kind                             : Complete Main
Default                                  : Yes
Forced                                   : No
VENDOR_ID                                : [0][0][0][0]

Audio #2
ID                                       : 3
Format                                   : E-AC-3
Format/Info                              : Enhanced AC-3
Commercial name                          : Dolby Digital Plus
Codec ID                                 : A_EAC3
Duration                                 : 1 h 30 min
Bit rate mode                            : Constant
Bit rate                                 : 192 kb/s
Channel(s)                               : 6 channels
Channel layout                           : L R C LFE Ls Rs
Sampling rate                            : 48.0 kHz
Frame rate                               : 31.250 FPS (1536 SPF)
Bit depth                                : 32 bits
Compression mode                         : Lossy
Stream size                              : 124 MiB (2%)
Title                                    : English
Language                                 : English
Service kind                             : Complete Main
Default                                  : Yes
Forced                                   : No
VENDOR_ID                                : [0][0][0][0]

Text
ID                                       : 4
Format                                   : UTF-8
Codec ID                                 : S_TEXT/UTF8
Codec ID/Info                            : UTF-8 Plain Text
Duration                                 : 1 h 30 min
Title                                    : english
Writing library                          : Lavc60.3.100 srt
Language                                 : English
Default                                  : Yes
Forced                                   : No


  User comments    Sort newest first

评论