虫虫危机A.Bugs.Life.1998.1080p.WEB-DL.ENG.LATINO.DDP.5.1.H264-BEN.THE.MEN

2024-04-03 10:32 0 25 0
【中文片名】: 虫虫危机
【片名】: A.Bugs.Life.1998.1080p.WEB-DL.ENG.LATINO.DDP.5.1.H264-BEN.THE.MEN
【又名】: 虫虫特工队
【格式】: 1080P
【国家】: 美国
【影片类型】: 冒险 / 喜剧 / 家庭 / 动画
【主演】: 安德鲁·斯坦顿 / 凯文·史派西 / 约翰·拉塞特 / Dave Foley / 海顿·潘妮蒂尔 / Don McEnery / Bob Shaw / 茱莉亚·路易斯-德瑞弗斯
【时长】: 95 分钟
【上映时间】: 1998-11-25
【评分】: 7.6 7.6
【文件大小】: 5080
【剧情介绍】: 点击查看

您所在用户组暂时无法直接查看隐藏内容,请登陆后重试!!!

内容简介

A.Bugs.Life.1998.1080p.WEB-DL.ENG.LATINO.DDP.5.1.H264-BEN.THE.MEN

https://www.imdb.com/title/tt0120623/

A misfit ant, looking for "warriors" to save his colony from greedy grasshoppers, recruits a group of bugs that turn out to be an inept circus troupe.

ENG ESP SUBS






Format                                   : Matroska
Format version                           : Version 4
File size                                : 5.08 GiB
Duration                                 : 1 h 35 min
Overall bit rate mode                    : Variable
Overall bit rate                         : 7 594 kb/s
Frame rate                               : 23.976 FPS
Movie name                               : A.Bugs.Life.1998.1080p.WEB-DL[Ben The Men]
Encoded date                             : 2024-04-03 02:20:41 UTC
Writing application                      : mkvmerge v83.0 ('Circle Of Friends') 64-bit
Writing library                          : libebml v1.4.5 + libmatroska v1.7.1

Video
ID                                       : 1
Format                                   : AVC
Format/Info                              : Advanced Video Codec
Format profile                           : High@L4
Format settings                          : CABAC / 4 Ref Frames
Format settings, CABAC                   : Yes
Format settings, Reference frames        : 4 frames
Codec ID                                 : V_MPEG4/ISO/AVC
Duration                                 : 1 h 35 min
Bit rate mode                            : Variable
Bit rate                                 : 7 080 kb/s
Maximum bit rate                         : 12.7 Mb/s
Width                                    : 1 920 pixels
Height                                   : 1 080 pixels
Display aspect ratio                     : 16:9
Frame rate mode                          : Constant
Frame rate                               : 23.976 (24000/1001) FPS
Color space                              : YUV
Chroma subsampling                       : 4:2:0
Bit depth                                : 8 bits
Scan type                                : Progressive
Bits/(Pixel*Frame)                       : 0.142
Time code of first frame                 : 00:00:00;00
Stream size                              : 4.73 GiB (93%)
Title                                    : BEN.THE.MEN
Language                                 : English
Default                                  : Yes
Forced                                   : Yes
Color range                              : Limited
Color primaries                          : BT.709
Transfer characteristics                 : BT.709
Matrix coefficients                      : BT.709

Audio #1
ID                                       : 2
Format                                   : E-AC-3
Format/Info                              : Enhanced AC-3
Commercial name                          : Dolby Digital Plus
Codec ID                                 : A_EAC3
Duration                                 : 1 h 35 min
Bit rate mode                            : Constant
Bit rate                                 : 256 kb/s
Channel(s)                               : 6 channels
Channel layout                           : L R C LFE Ls Rs
Sampling rate                            : 48.0 kHz
Frame rate                               : 31.250 FPS (1536 SPF)
Compression mode                         : Lossy
Stream size                              : 175 MiB (3%)
Title                                    : BTM DDP5.1
Language                                 : English
Service kind                             : Complete Main
Default                                  : Yes
Forced                                   : Yes

Audio #2
ID                                       : 3
Format                                   : E-AC-3
Format/Info                              : Enhanced AC-3
Commercial name                          : Dolby Digital Plus
Codec ID                                 : A_EAC3
Duration                                 : 1 h 35 min
Bit rate mode                            : Constant
Bit rate                                 : 256 kb/s
Channel(s)                               : 6 channels
Channel layout                           : L R C LFE Ls Rs
Sampling rate                            : 48.0 kHz
Frame rate                               : 31.250 FPS (1536 SPF)
Compression mode                         : Lossy
Stream size                              : 175 MiB (3%)
Title                                    : BTM DDP5.1
Language                                 : Spanish (Latin America)
Service kind                             : Complete Main
Default                                  : No
Forced                                   : No

  User comments    Sort newest first

评论