露梁海战Noryang Deadly Sea (2023) (BDRip 1080p HEVC EAC3) KOREAN [Anime Land][72D96E34].mkv

2024-05-24 16:13 0 102 5
【中文片名】: 露梁海战
【片名】: Noryang Deadly Sea (2023) (BDRip 1080p HEVC EAC3) KOREAN [Anime Land][72D96E34].mkv
【又名】: 鸣梁海战2,명량2,노량 해전,露梁:死亡之海,Noryang,Noryang: Sea of Death
【格式】: 1080P
【国家】: 韩国
【影片类型】: 动作 / 传记 / 历史 / 战争
【主演】: 郑在泳 / 金允石 / 吕珍九 / 尹洪基 / 许峻豪 / 周锡泰 / 白润植 / 金汉珉 / 李那拉
【时长】: 153分钟
【上映时间】: 2023-12-20(韩国)
【评分】: 0 5.4
【文件大小】: 7400
【剧情介绍】: 点击查看

您所在用户组暂时无法直接查看隐藏内容,请登陆后重试!!!

内容简介

Atlas.2024.1080p.NF.WEB-DL.DDP5.1.Atmos.H.264-BEN.THE.MEN

https://www.imdb.com/title/tt14856980/

In a bleak-sounding future, an A.I. soldier has determined that the only way to end war is to end humanity.

SUB LIST

English, Arabic, Catalan, Czech, Danish, German, Greek, Spanish (Latin America), Spanish (ES), Basque, Finnish, Filipino, French, Galician, Hebrew, Croatian, Hungarian, Indonesian, Italian, Japanese, Korean, Malay, Norwegian Bokmal, Dutch, Polish, Portuguese (BR), Portuguese (PT), Romanian, Russian, Swedish, Thai, Turkish, Ukrainian, Vietnamese, Chinese (Simplified), Chinese (Traditional






Format                                   : Matroska
Format version                           : Version 4
File size                                : 5.35 GiB
Duration                                 : 2 h 0 min
Overall bit rate mode                    : Variable
Overall bit rate                         : 6 373 kb/s
Frame rate                               : 24.000 FPS
Movie name                               : Atlas.2024.1080p.NF.WEB-DL[Ben The Men]
Encoded date                             : 2024-05-24 07:27:01 UTC
Writing application                      : mkvmerge v84.0 ('Sleeper') 64-bit
Writing library                          : libebml v1.4.5 + libmatroska v1.7.1

Video
ID                                       : 1
Format                                   : AVC
Format/Info                              : Advanced Video Codec
Format profile                           : Main@L4
Format settings                          : CABAC / 3 Ref Frames
Format settings, CABAC                   : Yes
Format settings, Reference frames        : 3 frames
Codec ID                                 : V_MPEG4/ISO/AVC
Duration                                 : 2 h 0 min
Bit rate mode                            : Variable
Bit rate                                 : 4 639 kb/s
Nominal bit rate                         : 5 000 kb/s
Maximum bit rate                         : 7 500 kb/s
Width                                    : 1 920 pixels
Height                                   : 1 080 pixels
Display aspect ratio                     : 16:9
Frame rate mode                          : Constant
Frame rate                               : 24.000 FPS
Color space                              : YUV
Chroma subsampling                       : 4:2:0
Bit depth                                : 8 bits
Scan type                                : Progressive
Bits/(Pixel*Frame)                       : 0.093
Stream size                              : 3.89 GiB (73%)
Title                                    : BEN.THE.MEN
Writing library                          : x264 core 148 r2727 7d026e8
Encoding settings                        : cabac=1 / ref=3 / deblock=1:0:0 / analyse=0x1:0x111 / me=umh / subme=10 / psy=1 / psy_rd=1.00:0.00 / mixed_ref=1 / me_range=24 / chroma_me=1 / trellis=2 / 8x8dct=0 / cqm=0 / deadzone=21,11 / fast_pskip=1 / chroma_qp_offset=-2 / threads=6 / lookahead_threads=1 / sliced_threads=0 / nr=0 / decimate=1 / interlaced=0 / bluray_compat=0 / stitchable=1 / constrained_intra=0 / bframes=2 / b_pyramid=0 / b_adapt=2 / b_bias=0 / direct=3 / weightb=1 / open_gop=0 / weightp=2 / keyint=240 / keyint_min=121 / scenecut=0 / intra_refresh=0 / rc_lookahead=48 / rc=2pass / mbtree=1 / bitrate=5000 / ratetol=1.0 / qcomp=0.50 / qpmin=6 / qpmax=51 / qpstep=4 / cplxblur=20.0 / qblur=0.5 / vbv_maxrate=7500 / vbv_bufsize=10000 / nal_hrd=vbr / filler=0 / ip_ratio=1.40 / aq=1:1.00
Language                                 : English
Default                                  : Yes
Forced                                   : No

Audio #1
ID                                       : 2
Format                                   : E-AC-3 JOC
Format/Info                              : Enhanced AC-3 with Joint Object Coding
Commercial name                          : Dolby Digital Plus with Dolby Atmos
Codec ID                                 : A_EAC3
Duration                                 : 2 h 0 min
Bit rate mode                            : Constant
Bit rate                                 : 768 kb/s
Channel(s)                               : 6 channels
Channel layout                           : L R C LFE Ls Rs
Sampling rate                            : 48.0 kHz
Frame rate                               : 31.250 FPS (1536 SPF)
Compression mode                         : Lossy
Stream size                              : 660 MiB (12%)
Title                                    : BTM DDP5.1 Atmos
Language                                 : English
Service kind                             : Complete Main
Default                                  : Yes
Forced                                   : No
Complexity index                         : 16
Number of dynamic objects                : 15
Bed channel count                        : 1 channel
Bed channel configuration                : LFE
Dialog Normalization                     : -26 dB
compr                                    : -0.28 dB
dialnorm_Average                         : -26 dB
dialnorm_Minimum                         : -26 dB
dialnorm_Maximum                         : -26 dB

Audio #2
ID                                       : 3
Format                                   : E-AC-3
Format/Info                              : Enhanced AC-3
Commercial name                          : Dolby Digital Plus
Codec ID                                 : A_EAC3
Duration                                 : 2 h 0 min
Bit rate mode                            : Constant
Bit rate                                 : 960 kb/s
Channel(s)                               : 6 channels
Channel layout                           : L R C LFE Ls Rs
Sampling rate                            : 48.0 kHz
Frame rate                               : 31.250 FPS (1536 SPF)
Compression mode                         : Lossy
Stream size                              : 825 MiB (15%)
Title                                    : BTM DDP5.1
Language                                 : English
Service kind                             : Complete Main
Default                                  : Yes
Forced                                   : No
Dialog Normalization                     : -31 dB
dialnorm_Average                         : -31 dB
dialnorm_Minimum                         : -31 dB
dialnorm_Maximum                         : -31 dB
  User comments    Sort newest first atOptions = {'key' : '59354b0c63c60cd2098244312b6753ed','format' : 'iframe','height' : 50,'width' : 320,'params' : {}};document.write('');

评论