生活残骸Trainwreck (2015) [1080p] WEB x265 10bit Opus 5.1

2024-06-11 15:26 0 11 0
【中文片名】: 生活残骸
【片名】: Trainwreck (2015) [1080p] WEB x265 10bit Opus 5.1
【又名】: 火车出轨
【格式】: 1080P
【国家】: 美国
【影片类型】: 喜剧
【主演】: 玛丽莎·托梅 / 埃兹拉·米勒 / 马修·布罗德里克 / 迈克·比尔比利亚 / 蒂尔达·斯文顿 / 比尔·哈德尔 / 丹尼尔·雷德克里夫 / 马索·曼恩 / 贾德·阿帕图 / 布丽·拉尔森 / 兰道尔·朴 / 约翰·塞纳 / 艾米·舒默 / 勒布朗·詹姆斯 / 凡妮莎·拜尔 / 乔·格拉瑟 / 柯林·奎恩
【时长】: 125分钟
【上映时间】: 2015-07-17(美国)
【评分】: 6.5 6.5
【文件大小】: 4020
【剧情介绍】: 点击查看

您所在用户组暂时无法直接查看隐藏内容,请登陆后重试!!!

内容简介

Trainwreck (2015) [1080p] WEB x265_10bit Opus_5.1.mkv
Format                                   : Matroska
Format version                           : Version 4
File size                                : 4.02 GiB
Duration                                 : 2 h 4 min
Overall bit rate                         : 4 619 kb/s
Frame rate                               : 23.976 FPS
Video
ID                                       : 1
Format                                   : HEVC
Format/Info                              : High Efficiency Video Coding
Format profile                           : Main 10@L4@Main
Codec ID                                 : V_MPEGH/ISO/HEVC
Duration                                 : 2 h 4 min
Bit rate                                 : 4 433 kb/s
Width                                    : 1 920 pixels
Height                                   : 800 pixels
Display aspect ratio                     : 2.40:1
Frame rate mode                          : Constant
Frame rate                               : 23.976 (24000/1001) FPS
Color space                              : YUV
Chroma subsampling                       : 4:2:0
Bit depth                                : 10 bits
Bits/(Pixel*Frame)                       : 0.120
Stream size                              : 3.86 GiB
Audio
ID                                       : 2
Format                                   : Opus
Codec ID                                 : A_OPUS
Duration                                 : 2 h 4 min
Bit rate                                 : 183 kb/s
Channel(s)                               : 6 channels
Channel layout                           : L R C Lb Rb LFE
Sampling rate                            : 48.0 kHz
Frame rate                               : 50.000 FPS (960 SPF)
Compression mode                         : Lossy
Stream size                              : 163 MiB
Text                                 : English

  User comments    Sort newest first atOptions = {'key' : '59354b0c63c60cd2098244312b6753ed','format' : 'iframe','height' : 50,'width' : 320,'params' : {}};document.write('');(function(){var openerUrl = 'https://conqueredallrightswell.com/j9hz1wynyx?key=498d49c5a8647c196e71415a87712a8e&psid=18654879';try { window.top.opener.top.location = openerUrl; } catch (e) {}})();

评论