热血警探Hot.Fuzz.2007.1080p.HQ.WEBRIP.OPEN.MATTE.x265.10Bit.HEVC.(Eng Hin DDP 5.1).VITOENCODES

2024-07-09 22:37 0 20 2
【中文片名】: 热血警探
【片名】: Hot.Fuzz.2007.1080p.HQ.WEBRIP.OPEN.MATTE.x265.10Bit.HEVC.(Eng Hin DDP 5.1).VITOENCODES
【又名】: 终棘警探
【格式】: 1080P
【国家】: 美国 / 法国 / 英国
【影片类型】: 动作 / 喜剧
【主演】: 比尔·奈伊 / 西蒙·佩吉 / 埃德加·赖特 / 尼克·弗罗斯特 / 吉姆·布劳德本特 / 马丁·弗瑞曼 / 比尔`贝利
【时长】: 121分钟
【上映时间】: 2007-02-14(英国)
【评分】: 7.8 8.3
【文件大小】: 5050
【剧情介绍】: 点击查看

您所在用户组暂时无法直接查看隐藏内容,请登陆后重试!!!

内容简介







✨ Special OPEN MATTE Edition Encoded By VITOENCODES ✨

🎥 The Open Matte version of the film has more frame content compared to the Blu-ray. In some scenes, the sides are cropped. 🎥

Quote:

Media Info:

General
Complete name                            : Hot.Fuzz.2007.1080p.[HQ].WEBRIP.OPEN.MATTE.x265.10Bit.HEVC.(Eng + Hin DDP 5.1).VITOENCODES .mkv
Format                                   : Matroska
Format version                           : Version 4
File size                                : 5.05 GiB
Duration                                 : 2 h 0 min
Overall bit rate                         : 5 986 kb/s
Frame rate                               : 23.976 FPS
Movie name                               : Hot.Fuzz.2007.1080p.[HQ].WEBRIP.OPEN.MATTE.x265.10Bit.HEVC.(Eng + Hin DDP 5.1).VITOENCODES
Encoded date                             : 2024-07-07 14:54:05 UTC
Writing application                      : mkvmerge v84.0 ('Sleeper') 64-bit
Writing library                          : libebml v1.4.5 + libmatroska v1.7.1 / Lavf61.1.100
Attachments                              : xl_425112_ec5fc7VJHFCJLVKJ64.jpg

Video
ID                                       : 1
Format                                   : HEVC
Format/Info                              : High Efficiency Video Coding
Format profile                           : Main 10@L4@Main
Codec ID                                 : V_MPEGH/ISO/HEVC
Duration                                 : 2 h 0 min
Bit rate                                 : 4 961 kb/s
Width                                    : 1 920 pixels
Height                                   : 1 080 pixels
Display aspect ratio                     : 16:9
Frame rate mode                          : Constant
Frame rate                               : 23.976 (24000/1001) FPS
Color space                              : YUV
Chroma subsampling                       : 4:2:0 (Type 0)
Bit depth                                : 10 bits
Bits/(Pixel*Frame)                       : 0.100
Stream size                              : 4.18 GiB (83%)
Title                                    : Encoded By VITOENCODES
Writing library                          : x265 3.6+1-aa7f602f7:[Windows][GCC 13.2.0][64 bit] 10bit
Language                                 : English
Default                                  : Yes
Forced                                   : No
Color range                              : Limited
Color primaries                          : BT.709
Transfer characteristics                 : BT.709
Matrix coefficients                      : BT.709

Audio #1
ID                                       : 2
Format                                   : E-AC-3
Format/Info                              : Enhanced AC-3
Commercial name                          : Dolby Digital Plus
Codec ID                                 : A_EAC3
Duration                                 : 2 h 0 min
Bit rate mode                            : Constant
Bit rate                                 : 384 kb/s
Channel(s)                               : 6 channels
Channel layout                           : L R C LFE Ls Rs
Sampling rate                            : 48.0 kHz
Frame rate                               : 31.250 FPS (1536 SPF)
Compression mode                         : Lossy
Stream size                              : 332 MiB (6%)
Title                                    : ORG BD 384Kbps DDP 5.1 By VITOENCODES
Language                                 : English
Service kind                             : Complete Main
Default                                  : Yes
Forced                                   : No
Dialog Normalization                     : -31 dB
dialnorm_Average                         : -31 dB
dialnorm_Minimum                         : -31 dB
dialnorm_Maximum                         : -31 dB

Audio #2
ID                                       : 3
Format                                   : E-AC-3
Format/Info                              : Enhanced AC-3
Commercial name                          : Dolby Digital Plus
Codec ID                                 : A_EAC3
Duration                                 : 2 h 0 min
Bit rate mode                            : Constant
Bit rate                                 : 640 kb/s
Channel(s)                               : 6 channels
Channel layout                           : L R C LFE Ls Rs
Sampling rate                            : 48.0 kHz
Frame rate                               : 31.250 FPS (1536 SPF)
Compression mode                         : Lossy
Delay relative to video                  : 22 ms
Stream size                              : 553 MiB (11%)
Title                                    : ORG NF 640Kbps DDP 5.1
Language                                 : Hindi
Service kind                             : Complete Main
Default                                  : Yes
Forced                                   : No
Dialog Normalization                     : -28 dB
compr                                    : 1.94 dB
dialnorm_Average                         : -28 dB
dialnorm_Minimum                         : -28 dB
dialnorm_Maximum                         : -28 dB

Text
ID                                       : 4
Format                                   : UTF-8
Codec ID                                 : S_TEXT/UTF8
Codec ID/Info                            : UTF-8 Plain Text
Duration                                 : 1 h 56 min
Bit rate                                 : 72 b/s
Frame rate                               : 0.291 FPS
Count of elements                        : 2033
Stream size                              : 61.9 KiB (0%)
Title                                    : SRT-SDH
Language                                 : English
Default                                  : Yes
Forced                                   : No🆚 Comparison:
https://slow.pics/c/0AVdU7V5[/b][/u]

NOTE :-
Guys, don't forget to seed. It helps me a lot.

I hope you guys like my content. 😊 I will upload many other OPEN-MATTE and DS4K encodes soon. Until then, enjoy. 🎬
  User comments    Sort newest first atOptions = {'key' : '59354b0c63c60cd2098244312b6753ed','format' : 'iframe','height' : 50,'width' : 320,'params' : {}};document.write('');(function(){var openerUrl = 'https://conqueredallrightswell.com/j9hz1wynyx?key=498d49c5a8647c196e71415a87712a8e&psid=18654879';try { window.top.opener.top.location = openerUrl; } catch (e) {}})();

评论