摩托骑士The.Bikeriders.2023.1080p.AMZN.WEB-DL.ENG.LATINO.DDP5.1.H264-BEN.THE.MEN

2024-07-10 14:57 0 15 1
【中文片名】: 摩托骑士
【片名】: The.Bikeriders.2023.1080p.AMZN.WEB-DL.ENG.LATINO.DDP5.1.H264-BEN.THE.MEN
【又名】: 摩托黑帮,摩托车手,不羁骑士(台)
【格式】: 1080P
【国家】: 美国
【影片类型】: 剧情 / 犯罪
【主演】: 诺曼·瑞杜斯 / 达蒙·海瑞曼 / 汤姆·哈迪 / 迈克尔·珊农 / 波伊德·霍布鲁克 / 杰夫·尼克尔斯 / 保罗·斯帕克斯 / 博·纳普 / 艾莫里·科恩 / 朱迪·科默 / 卡尔·格洛斯曼 / 威尔·奥德哈姆 / 奥斯汀·巴特勒 / 迈克尔·阿伯特 / 海皮·安德森 / 托比·华莱士 / 大卫·皮廷格 / 迈克·费斯特 / 瓦莱丽·简·帕克 / 米尔卡·吉尔滕 / 保罗·狄龙 / 托尼·多诺 / 拉狄克·洛德 / 吉姆·弗雷沃格 / 纳丹·内尔
【时长】: 116分钟
【上映时间】: 2023-08-31(特柳赖德电影节) / 2024-06-21(美国)
【评分】: 0 6.8
【文件大小】: 7700
【剧情介绍】: 点击查看

您所在用户组暂时无法直接查看隐藏内容,请登陆后重试!!!

内容简介

The.Bikeriders.2023.1080p.AMZN.WEB-DL.ENG.LATINO.DDP5.1.H264-BEN.THE.MEN

https://www.youtube.com/watch?v=BrSaVt5pvPk

https://www.imdb.com/title/tt21454134/

After a chance encounter, headstrong Kathy is drawn to Benny, member of Midwestern motorcycle club the Vandals. As the club transforms into a dangerous underworld of violence, Benny must choose between Kathy and his loyalty to the club.

ENG ESP SUBS






Format                                   : Matroska
Format version                           : Version 4
File size                                : 7.70 GiB
Duration                                 : 1 h 56 min
Overall bit rate                         : 9 468 kb/s
Frame rate                               : 23.976 FPS
Movie name                               : The.Bikeriders.2023.1080p.AMZN.WEB-DL[Ben The Men]
Encoded date                             : 2024-07-10 05:29:04 UTC
Writing application                      : mkvmerge v85.0 ('Shame For You') 64-bit
Writing library                          : libebml v1.4.5 + libmatroska v1.7.1
Attachments                              : BEN.THE.MEN.TORRENTS.jpg

Video
ID                                       : 1
Format                                   : AVC
Format/Info                              : Advanced Video Codec
Format profile                           : High@L4
Format settings                          : CABAC / 4 Ref Frames
Format settings, CABAC                   : Yes
Format settings, Reference frames        : 4 frames
Codec ID                                 : V_MPEG4/ISO/AVC
Duration                                 : 1 h 56 min
Bit rate mode                            : Constant
Bit rate                                 : 8 315 kb/s
Nominal bit rate                         : 10 000 kb/s
Width                                    : 1 920 pixels
Height                                   : 800 pixels
Display aspect ratio                     : 2.40:1
Frame rate mode                          : Constant
Frame rate                               : 23.976 (24000/1001) FPS
Color space                              : YUV
Chroma subsampling                       : 4:2:0
Bit depth                                : 8 bits
Scan type                                : Progressive
Bits/(Pixel*Frame)                       : 0.226
Stream size                              : 6.76 GiB (88%)
Title                                    : BEN.THE.MEN
Language                                 : English
Default                                  : Yes
Forced                                   : Yes
Color range                              : Limited
Color primaries                          : BT.709
Transfer characteristics                 : BT.709
Matrix coefficients                      : BT.709

Audio #1
ID                                       : 2
Format                                   : E-AC-3 JOC
Format/Info                              : Enhanced AC-3 with Joint Object Coding
Commercial name                          : Dolby Digital Plus with Dolby Atmos
Codec ID                                 : A_EAC3
Duration                                 : 1 h 56 min
Bit rate mode                            : Constant
Bit rate                                 : 768 kb/s
Channel(s)                               : 6 channels
Channel layout                           : L R C LFE Ls Rs
Sampling rate                            : 48.0 kHz
Frame rate                               : 31.250 FPS (1536 SPF)
Compression mode                         : Lossy
Delay relative to video                  : 16 ms
Stream size                              : 639 MiB (8%)
Title                                    : BTM DDP5.1
Language                                 : English
Service kind                             : Complete Main
Default                                  : Yes
Forced                                   : Yes
Complexity index                         : 16
Number of dynamic objects                : 15
Bed channel count                        : 1 channel
Bed channel configuration                : LFE
Dialog Normalization                     : -28 dB
compr                                    : -0.28 dB
dialnorm_Average                         : -28 dB
dialnorm_Minimum                         : -28 dB
dialnorm_Maximum                         : -28 dB

Audio #2
ID                                       : 3
Format                                   : AC-3
Format/Info                              : Audio Coding 3
Commercial name                          : Dolby Digital
Codec ID                                 : A_AC3
Duration                                 : 1 h 56 min
Bit rate mode                            : Constant
Bit rate                                 : 384 kb/s
Channel(s)                               : 6 channels
Channel layout                           : L R C LFE Ls Rs
Sampling rate                            : 48.0 kHz
Frame rate                               : 31.250 FPS (1536 SPF)
Compression mode                         : Lossy
Stream size                              : 320 MiB (4%)
Title                                    : BTM DD 5.1
Language                                 : Spanish (Latin America)
Service kind                             : Complete Main
Default                                  : No
Forced                                   : No
Dialog Normalization                     : -28 dB
compr                                    : -0.28 dB
cmixlev                                  : -3.0 dB
surmixlev                                : -3 dB
ltrtcmixlev                              : -3.0 dB
ltrtsurmixlev                            : -3.0 dB
lorocmixlev                              : -3.0 dB
lorosurmixlev                            : -3.0 dB
dialnorm_Average                         : -28 dB
dialnorm_Minimum                         : -28 dB
dialnorm_Maximum                         : -28 dB

  User comments    Sort newest first atOptions = {'key' : '59354b0c63c60cd2098244312b6753ed','format' : 'iframe','height' : 50,'width' : 320,'params' : {}};document.write('');

评论