夕阳之恋Bobby.Deerfield.1977.1080p.HDTV.x264.DD2.0-FGT

2015-11-15 21:55 0 820 73
【中文片名】: 夕阳之恋
【片名】: Bobby.Deerfield.1977.1080p.HDTV.x264.DD2.0-FGT
【又名】: 常在心头
【格式】: 1080P
【国家】: 美国
【影片类型】: 剧情 / 爱情
【主演】: Sydney Pollack / Al Pacino / Alvin Sargent / Marthe Keller / 安妮·杜普蕾
【时长】: 124 分钟
【上映时间】: 1977-09-29
【评分】: 6.7 6.7
【文件大小】: 4930
【剧情介绍】: 点击查看

您所在用户组暂时无法直接查看隐藏内容,请登陆后重试!!!

内容简介




点击查看文件测试信息 [+]
MediaInfo
Video
ID                                       : 1
Format                                   : AVC
Format/Info                              : Advanced Video Codec
Format profile                           : High@L4.1
Format settings, CABAC                   : Yes
Format settings, ReFrames                : 5 frames
Codec ID                                 : V_MPEG4/ISO/AVC
Duration                                 : 1h 58mn
Bit rate                                 : 5 435 Kbps
Width                                    : 1 920 pixels
Height                                   : 1 072 pixels
Display aspect ratio                     : 16:9
Frame rate mode                          : Constant
Frame rate                               : 25.000 fps
Color space                              : YUV
Chroma subsampling                       : 4:2:0
Bit depth                                : 8 bits
Scan type                                : Progressive
Bits/(Pixel*Frame)                       : 0.106
Stream size                              : 4.52 GiB (92%)
Title                                    : Bobby.Deerfield.1977.1080p.HDTV.x264.DD2.0-FGT
Writing library                          : x264 core 128 r2216+698 b3c1019
Encoding settings                        : cabac=1 / ref=5 / deblock=1:0:0 / analyse=0x3:0 / me=umh / subme=7 / psy=1 / fade_compensate=0.00 / psy_rd=1.00:0.00 / mixed_ref=1 / me_range=16 / chroma_me=1 / trellis=1 / 8x8dct=1 / cqm=0 / deadzone=21,11 / fast_pskip=0 / chroma_qp_offset=-2 / threads=12 / lookahead_threads=2 / sliced_threads=0 / nr=0 / decimate=1 / interlaced=0 / bluray_compat=0 / constrained_intra=0 / fgo=0 / bframes=3 / b_pyramid=2 / b_adapt=1 / b_bias=0 / direct=1 / weightb=1 / open_gop=0 / weightp=1 / keyint=250 / keyint_min=25 / scenecut=40 / intra_refresh=0 / rc_lookahead=30 / rc=crf / mbtree=1 / crf=20.0000 / qcomp=0.60 / qpmin=0 / qpmax=69 / qpstep=4 / ip_ratio=1.40 / aq=1:1.00
Language                                 : English
Default                                  : Yes
Forced                                   : No

Audio
ID                                       : 2
Format                                   : AC-3
Format/Info                              : Audio Coding 3
Mode extension                           : CM (complete main)
Format settings, Endianness              : Big
Codec ID                                 : A_AC3
Duration                                 : 1h 58mn
Bit rate mode                            : Constant
Bit rate                                 : 384 Kbps
Channel(s)                               : 2 channels
Channel positions                        : Front: L R
Sampling rate                            : 48.0 KHz
Compression mode                         : Lossy
Delay relative to video                  : 10ms
Stream size                              : 327 MiB (6%)
Title                                    : Bobby.Deerfield.1977.1080p.HDTV.x264.DD2.0-FGT
Language                                 : English
Default                                  : Yes
Forced                                   : No

评论