我是谁Who.Am.I.1998.1080p.HDTV.x264.DD5.1-FGT

2015-11-15 22:34 0 2987 937
【中文片名】: 我是谁
【片名】: Who.Am.I.1998.1080p.HDTV.x264.DD5.1-FGT
【又名】: Who Am I?
【格式】: 1080P
【国家】: 香港
【影片类型】: 动作 / 冒险 / 喜剧 / 科幻
【主演】: 成龙 / 陈木胜 / 卢惠光 / 陈淑贤 / 罗恩·斯穆安伯格 / 李·雷诺兹 / 法拉美穗 / 山本未来 / Ron Smerczak / 艾德·尼尔森 / Tom Pompert / Glory Simon / Fred van Ditmarsch / Fritz Krommenhoek / Dick Rienstra / Rinaldo van Ommeren / Pim Daane / 杰里迈亚·弗莱明 / Neil Berger / Dik Brinksma / Yanick Mbali / Washington Xisolo / David Vlok / 关勇
【时长】: 120分钟,108分钟(美国)
【上映时间】: 1998-01-17
【评分】: 6.8 7.2
【文件大小】: 7320
【剧情介绍】: 点击查看

您所在用户组暂时无法直接查看隐藏内容,请登陆后重试!!!

内容简介




点击查看文件测试信息 [+]
MediaInfo
Video
ID                                       : 1
Format                                   : AVC
Format/Info                              : Advanced Video Codec
Format profile                           : High@L4.1
Format settings, CABAC                   : Yes
Format settings, ReFrames                : 3 frames
Codec ID                                 : V_MPEG4/ISO/AVC
Duration                                 : 1h 47mn
Bit rate mode                            : Variable
Bit rate                                 : 9 317 Kbps
Maximum bit rate                         : 40.0 Mbps
Width                                    : 1 920 pixels
Height                                   : 1 080 pixels
Display aspect ratio                     : 16:9
Frame rate mode                          : Constant
Frame rate                               : 23.976 fps
Color space                              : YUV
Chroma subsampling                       : 4:2:0
Bit depth                                : 8 bits
Scan type                                : Progressive
Bits/(Pixel*Frame)                       : 0.187
Stream size                              : 6.88 GiB (94%)
Title                                    : Who.Am.I.1998.1080p.HDTV.x264.DD5.1-FGT
Writing library                          : x264 core 67 r1145M d2e1e1c
Encoding settings                        : cabac=1 / ref=3 / deblock=1:-1:-1 / analyse=0x3:0x113 / me=hex / subme=5 / psy_rd=0.0:0.0 / mixed_ref=1 / me_range=12 / chroma_me=1 / trellis=0 / 8x8dct=1 / cqm=0 / deadzone=21,11 / chroma_qp_offset=0 / threads=3 / nr=0 / decimate=1 / mbaff=0 / bframes=3 / b_pyramid=0 / b_adapt=1 / b_bias=0 / direct=3 / wpredb=1 / keyint=24 / keyint_min=2 / scenecut=40 / rc=2pass / bitrate=9317 / ratetol=1.0 / qcomp=0.50 / qpmin=10 / qpmax=51 / qpstep=4 / cplxblur=20.0 / qblur=0.5 / vbv_maxrate=40000 / vbv_bufsize=30000 / ip_ratio=1.10 / pb_ratio=1.10 / aq=1:1.00
Language                                 : English
Default                                  : Yes
Forced                                   : No

Audio
ID                                       : 2
Format                                   : AC-3
Format/Info                              : Audio Coding 3
Mode extension                           : CM (complete main)
Format settings, Endianness              : Big
Codec ID                                 : A_AC3
Duration                                 : 1h 47mn
Bit rate mode                            : Constant
Bit rate                                 : 384 Kbps
Channel(s)                               : 6 channels
Channel positions                        : Front: L C R, Side: L R, LFE
Sampling rate                            : 48.0 KHz
Compression mode                         : Lossy
Stream size                              : 297 MiB (4%)
Title                                    : Who.Am.I.1998.1080p.HDTV.x264.DD5.1-FGT
Language                                 : English
Default                                  : Yes
Forced                                   : No


评论